<?xml version="1.0" standalone="no"?>
<!DOCTYPE svg PUBLIC "-//W3C//DTD SVG 1.1//EN" "http://www.w3.org/Graphics/SVG/1.1/DTD/svg11.dtd" >
<svg xmlns="http://www.w3.org/2000/svg">
<metadata>
Generated by SVGconv.
Copyright   : Copyright  2009 ParaType Ltd. All rights reserved.
Designer    : A.Korolkova, O.Umpeleva, V.Yefimov
Foundry     : ParaType Ltd
Foundry URL : http://www.paratype.com
</metadata>
<defs>
<font id="PTSans-Italic" horiz-adv-x="503" >
<font-face units-per-em="1000" ascent="1018" descent="276" />
<missing-glyph horiz-adv-x="750" />
<glyph unicode="&#32;" horiz-adv-x="267" />
<glyph unicode="&#33;" horiz-adv-x="273" d="M237 700h80l-73 -347l-54 -176h-46l20 176zM87 46q0 27 16 42.5q16 15.5 42 15.5q26 0 42 -15.5q16 -15.5 16 -42.5q0 -26 -16 -42q-16 -16 -42 -16q-26 0 -42 16t-16 42z" />
<glyph unicode="&#34;" horiz-adv-x="303" d="M231 700h74l-70 -193h-45zM119 700h74l-70 -193l-45 0z" />
<glyph unicode="&#35;" horiz-adv-x="520" d="M316 225h-106l-39 -167h-68l39 167h-78l14 64h80l31 131h-75l14 64h76l38 158h68l-38 -158h106l38 158h68l-38 -158h77l-16 -64h-76l-31 -131h73l-16 -64h-73l-39 -167h-68zM226 289h106l31 131l-106 0z" />
<glyph unicode="&#36;" horiz-adv-x="520" d="M198 -9q-48 7 -84 26q-36 19 -53 34l35 61q16 -11 46.5 -28q30.5 -17 70.5 -24l60 281q-22 16 -43.5 34q-21.5 18 -38 39q-16.5 21 -27 47.5q-10.5 26.5 -10.5 60.5q0 44 14.5 77.5q14.5 33.5 41 57q26.5 23.5 62.5 37q36 13.5 79 16.5l20 90h64l-19 -89q43 -4 73.5 -15q30.5 -11 51.5 -22l-34 -63q-17 8 -44 16.5q-27 8.5 -62 12.5l-54 -251q23 -17 45.5 -36q22.5 -19 40 -43q17.5 -24 28.5 -54.5q11 -30.5 11 -70.5q0 -41 -14 -75.5q-14 -34.5 -41 -60q-27 -25.5 -66.5 -41.5q-39.5 -16 -89.5 -19q0 -1 -3 -14.5q-3 -13.5 -6 -30.5q-4 -19 -9 -44l-64 0zM390 178q0 45 -22 75.5q-22 30.5 -53 56.5l-54 -252q60 4 94.5 36q34.5 32 34.5 84zt0 0zM236 534q0 -38 20 -64.5q20 -26.5 49 -49.5l47 221q-57 -4 -86.5 -33.5t-29.5 -73.5z" />
<glyph unicode="&#37;" horiz-adv-x="736" d="M59 490q0 58 17.5 100q17.5 42 44.5 69q27 27 60 40q33 13 65 13q57 0 86.5 -31q29.5 -31 29.5 -88q0 -54 -15 -95q-15 -41 -40.5 -69q-25.5 -28 -60 -42.5q-34.5 -14.5 -72.5 -14.5q-51 0 -83 31q-32 31 -32 87zt0 0zM128 498q0 -32 14.5 -50q14.5 -18 43.5 -18q21 0 40.5 11q19.5 11 34.5 31.5q15 20.5 23.5 50q8.5 29.5 8.5 66.5q0 35 -15.5 50q-15.5 15 -43.5 15q-21 0 -40.5 -12.5q-19.5 -12.5 -34 -33.5q-14.5 -21 -23 -49.5q-8.5 -28.5 -8.5 -60.5zt0 0zM386 118q0 58 17.5 100q17.5 42 44.5 69q27 27 60 40q33 13 65 13q57 0 86.5 -31q29.5 -31 29.5 -88q0 -54 -15 -95q-15 -41 -40.5 -69q-25.5 -28 -60 -42.5q-34.5 -14.5 -72.5 -14.5q-51 0 -83 31q-32 31 -32 87zt0 0zM455 126q0 -32 14.5 -50q14.5 -18 43.5 -18q21 0 40.5 11q19.5 11 34.5 31.5q15 20.5 23.5 50q8.5 29.5 8.5 66.5q0 35 -15.5 50q-15.5 15 -43.5 15q-21 0 -40.5 -12.5q-19.5 -12.5 -34 -33.5q-14.5 -21 -23 -49.5q-8.5 -28.5 -8.5 -60.5zt0 0zM601 713l50 -39l-513 -686l-50 39z" />
<glyph unicode="&#38;" horiz-adv-x="772" d="M87 148q0 47 19.5 90q19.5 43 50.5 80q31 37 70 66.5q39 29.5 78 49.5q-7 18 -12 32.5q-5 14.5 -8.5 29q-3.5 14.5 -5 30q-1.5 15.5 -1.5 35.5q0 27 10 54q10 27 31 48.5q21 21.5 52.5 35q31.5 13.5 75.5 13.5q35 0 56.5 -9.5q21.5 -9.5 33.5 -23.5q12 -14 16 -31q4 -17 4 -32q0 -57 -43.5 -105.5q-43.5 -48.5 -118.5 -89.5q10 -29 23.5 -59.5q13.5 -30.5 29.5 -60.5q16 -30 34 -59.5q18 -29.5 36 -54.5q13 12 27.5 30.5q14.5 18.5 28.5 39q14 20.5 27 42.5q13 22 24 42l53 -29q-9 -17 -25 -40.5q-16 -23.5 -34 -48q-18 -24.5 -36 -47q-18 -22.5 -32 -37.5q32 -40 54.5 -61q22.5 -21 47.5 -37l-58 -56q-23 13 -49 38q-26 25 -51 58q-21 -18 -45 -34.5q-24 -16.5 -52 -29.5q-28 -13 -60.5 -21q-32.5 -8 -69.5 -8q-42 0 -75.5 12q-33.5 12 -57 33.5q-23.5 21.5 -36 50.5q-12.5 29 -12.5 64zt0 0zM460 131q-21 29 -40.5 63q-19.5 34 -36.5 68q-17 34 -30.5 65.5q-13.5 31.5 -22.5 55.5q-36 -23 -66 -49q-30 -26 -51.5 -53.5q-21.5 -27.5 -33.5 -56.5q-12 -29 -12 -59q0 -54 33 -81q33 -27 93 -27q24 0 48 6.5q24 6.5 46 17q22 10.5 40.5 23.5q18.5 13 32.5 27zt0 0zM353 563q0 -15 1 -27q1 -12 3.5 -22.5q2.5 -10.5 6 -21.5q3.5 -11 9.5 -26q57 34 85.5 65q28.5 31 28.5 69q0 20 -11.5 34q-11.5 14 -39.5 14q-23 0 -38.5 -7q-15.5 -7 -25.5 -19.5q-10 -12.5 -14.5 -28t-4.5 -30.5z" />
<glyph unicode="&#39;" horiz-adv-x="202" d="M143 700h74l-70 -193l-45 0z" />
<glyph unicode="&#40;" horiz-adv-x="266" d="M145 -218q-54 79 -72.5 152.5q-18.5 73.5 -18.5 140.5q0 101 23 194q23 93 62 174q39 81 90 148.5q51 67.5 107 120.5l37 -35q-56 -64 -100.5 -133.5q-44.5 -69.5 -76.5 -144.5q-32 -75 -48 -154.5q-16 -79.5 -16 -157.5q0 -66 13.5 -134q13.5 -68 45.5 -136z" />
<glyph unicode="&#41;" horiz-adv-x="266" d="M137 708q23 -30 39 -67q16 -37 26 -75q10 -38 14.5 -75.5q4.5 -37.5 4.5 -71.5q0 -100 -22.5 -193.5q-22.5 -93.5 -61 -175q-38.5 -81.5 -89 -149.5q-50.5 -68 -105.5 -121l-38 35q49 53 91.5 121q42.5 68 75.5 143.5q33 75.5 52 156q19 80.5 19 155.5q0 98 -12.5 165q-12.5 67 -43.5 119z" />
<glyph unicode="&#42;" horiz-adv-x="333" d="M161 715l25 -42l18 -56l21 57l24 40l48 -26l-25 -43l-47 -48l68 12h48v-56h-45l-65 12l46 -48l24 -39l-48 -28l-25 42l-24 61l-18 -58l-25 -42l-50 28l26 42l43 42l-59 -12h-50v56h50l63 -12l-45 44l-27 46z" />
<glyph unicode="&#43;" horiz-adv-x="480" d="M55 374h176v181h72v-181h176v-72h-176v-181h-72v181l-176 0z" />
<glyph unicode="&#44;" horiz-adv-x="195" d="M17 35q0 26 17 44q17 18 49 18q25 0 38.5 -17q13.5 -17 13.5 -39q0 -31 -10.5 -60.5q-10.5 -29.5 -29.5 -54.5q-19 -25 -44.5 -44.5q-25.5 -19.5 -55.5 -30.5l-16 39q38 14 61 44q23 30 28 59q-4 -2 -10 -2q-14 0 -27.5 12t-13.5 32z" />
<glyph unicode="&#45;" horiz-adv-x="342" d="M79 322h230l-17 -68l-229 0z" />
<glyph unicode="&#46;" horiz-adv-x="211" d="M35 46q0 27 16 42.5q16 15.5 42 15.5q26 0 42 -15.5q16 -15.5 16 -42.5q0 -26 -16 -42q-16 -16 -42 -16q-26 0 -42 16t-16 42z" />
<glyph unicode="&#47;" horiz-adv-x="336" d="M428 712l57 -31l-521 -825l-57 32z" />
<glyph unicode="&#48;" horiz-adv-x="520" d="M57 219q0 105 22.5 195.5q22.5 90.5 62 156.5q39.5 66 94.5 103.5q55 37.5 121 37.5q85 0 131 -55q46 -55 46 -175q0 -90 -19.5 -178q-19.5 -88 -57 -158.5q-37.5 -70.5 -92.5 -114q-55 -43.5 -127 -43.5q-51 0 -85.5 19.5q-34.5 19.5 -56 52q-21.5 32.5 -30.5 74q-9 41.5 -9 85.5zt0 0zM135 223q0 -51 10 -83.5q10 -32.5 26.5 -50q16.5 -17.5 37 -24.5q20.5 -7 41.5 -7q45 0 83 35.5q38 35.5 65 94.5q27 59 42.5 133q15.5 74 15.5 151q0 86 -24 128q-24 42 -87 42q-40 0 -77.5 -31q-37.5 -31 -67 -87q-29.5 -56 -47.5 -133t-18 -168z" />
<glyph unicode="&#49;" horiz-adv-x="520" d="M78 74h133l104 484l22 59l-49 -47l-120 -79l-28 51l247 170h34l-136 -638h130l-15 -74l-337 0z" />
<glyph unicode="&#50;" horiz-adv-x="520" d="M515 571q0 -52 -29 -113q-29 -61 -73.5 -122.5q-44.5 -61.5 -97.5 -120q-53 -58.5 -102 -105.5l-55 -43v-4l62 11h205l-14 -74h-379l6 29q25 25 64.5 62.5q39.5 37.5 84 83q44.5 45.5 89.5 95.5q45 50 81.5 100.5q36.5 50.5 58 97.5q21.5 47 21.5 87q0 19 -4 35q-4 16 -13 27.5q-9 11.5 -26 18q-17 6.5 -44 6.5q-36 0 -70 -14.5q-34 -14.5 -72 -39.5l-21 60q48 35 92 49.5q44 14.5 96 14.5q70 0 105 -39.5t35 -101.5z" />
<glyph unicode="&#51;" horiz-adv-x="520" d="M192 58q47 0 82.5 15q35.5 15 58 39.5q22.5 24.5 34.5 56q12 31.5 12 64.5q0 52 -26 80q-26 28 -97 28h-72l6 29l182 222l52 44l-63 -10h-185l14 74h340l-6 -29l-201 -242l-39 -29v-2l33 7q28 0 53 -9.5q25 -9.5 44.5 -29q19.5 -19.5 31 -49.5q11.5 -30 11.5 -72q0 -54 -17.5 -100.5q-17.5 -46.5 -52 -81.5q-34.5 -35 -86.5 -55q-52 -20 -121 -20q-43 0 -77.5 7q-34.5 7 -59.5 18l36 71q20 -11 48 -18.5t65 -7.5z" />
<glyph unicode="&#52;" horiz-adv-x="520" d="M514 215h-113l-45 -215h-73l45 215h-294l7 33l415 463h51l-91 -428h112zM390 503l27 82h-4l-47 -68l-173 -191l-55 -50l67 7l138 0z" />
<glyph unicode="&#53;" horiz-adv-x="520" d="M186 58q45 0 80.5 14.5q35.5 14.5 60.5 40q25 25.5 38 59.5q13 34 12 75q1 57 -30.5 85q-31.5 28 -103.5 28l-80 -5l73 345h296l-16 -74h-225l-43 -200q1 0 7 0q6 0 14 1q9 0 19 1q47 0 79 -14.5q32 -14.5 51.5 -37.5q19.5 -23 28 -53.5q8.5 -30.5 8.5 -61.5q0 -77 -25 -129.5q-25 -52.5 -65.5 -84.5q-40.5 -32 -91 -45.5q-50.5 -13.5 -102.5 -13.5q-40 0 -70.5 6q-30.5 6 -53.5 17l34 69q21 -9 44.5 -15.5t60.5 -6.5z" />
<glyph unicode="&#54;" horiz-adv-x="520" d="M483 244q0 -56 -16.5 -102.5q-16.5 -46.5 -48 -81q-31.5 -34.5 -76 -53.5q-44.5 -19 -99.5 -19q-33 0 -65 11.5q-32 11.5 -57.5 37q-25.5 25.5 -41.5 66.5q-16 41 -16 101q0 100 38 189q38 89 99 156.5q61 67.5 138 110.5q77 43 155 52l4 -64q-55 -9 -109 -36.5q-54 -27.5 -99.5 -68q-45.5 -40.5 -80.5 -91q-35 -50.5 -53 -105.5q10 13 27 25.5q17 12.5 38.5 22.5q21.5 10 46 15.5q24.5 5.5 50.5 5.5q72 0 119 -43.5q47 -43.5 47 -128.5zt0 0zM405 234q-2 50 -27 82q-25 32 -82 32q-23 0 -45.5 -6.5q-22.5 -6.5 -43 -17.5q-20.5 -11 -37 -25.5q-16.5 -14.5 -26.5 -30.5q-2 -13 -4 -28.5q-2 -15.5 -2 -27.5q0 -33 6.5 -61.5q6.5 -28.5 20.5 -49.5q14 -21 35 -33q21 -12 51 -12q40 0 69 15.5q29 15.5 47.5 40.5q18.5 25 27 57t10.5 65z" />
<glyph unicode="&#55;" horiz-adv-x="520" d="M69 0l362 586l52 49l-58 -9h-265l15 74h397l-5 -27l-416 -673z" />
<glyph unicode="&#56;" horiz-adv-x="520" d="M61 146q0 69 45.5 127.5q45.5 58.5 128.5 93.5q-16 13 -30.5 26.5q-14.5 13.5 -26 31q-11.5 17.5 -18.5 40.5q-7 23 -7 56q0 46 17.5 81.5q17.5 35.5 47 60q29.5 24.5 68.5 37q39 12.5 81 12.5q33 0 62 -9.5q29 -9.5 50 -28q21 -18.5 33 -46q12 -27.5 12 -63.5q0 -30 -11.5 -59.5q-11.5 -29.5 -32 -55.5q-20.5 -26 -48 -48.5q-27.5 -22.5 -60.5 -40.5q18 -15 34.5 -31.5q16.5 -16.5 28.5 -36q12 -19.5 19.5 -43q7.5 -23.5 7.5 -52.5q0 -42 -13.5 -80q-13.5 -38 -42 -67q-28.5 -29 -73 -46q-44.5 -17 -107.5 -17q-41 0 -71.5 12.5q-30.5 12.5 -51.5 33.5q-21 21 -31.5 50q-10.5 29 -10.5 62zt0 0zM384 183q0 28 -7.5 49.5q-7.5 21.5 -19.5 39q-12 17.5 -31 32.5q-19 15 -41 29q-66 -31 -106 -76q-40 -45 -40 -102q0 -18 5 -36q5 -18 16.5 -31.5q11.5 -13.5 32 -21.5q20.5 -8 50.5 -8q28 0 53.5 7.5q25.5 7.5 45.5 23.5q20 16 31 39.5q11 23.5 11 54.5zt0 0zM231 525q0 -48 24 -77.5q24 -29.5 66 -55.5q25 16 48 35.5q23 19.5 39.5 40q16.5 20.5 27 41.5q10.5 21 10.5 42q0 47 -23 69q-23 22 -65 22q-26 0 -49 -7.5q-23 -7.5 -40 -22.5q-17 -15 -27.5 -37t-10.5 -50z" />
<glyph unicode="&#57;" horiz-adv-x="520" d="M106 467q0 58 18 103.5q18 45.5 50.5 77q32.5 31.5 76 48q43.5 16.5 94.5 16.5q37 0 70 -13.5q33 -13.5 58 -40.5q25 -27 39 -66.5q14 -39.5 14 -91.5q0 -115 -40.5 -206.5q-40.5 -91.5 -103.5 -157q-63 -65.5 -139 -103.5q-76 -38 -146 -45l-4 64q63 14 116.5 41q53.5 27 96.5 64.5q43 37.5 74 84q31 46.5 49 99.5q-32 -28 -70 -42.5q-38 -14.5 -96 -14.5q-27 0 -54.5 10q-27.5 10 -50.5 32q-23 22 -37.5 57q-14.5 35 -14.5 84zt0 0zM184 476q0 -36 11 -60q11 -24 26.5 -38q15.5 -14 34 -20q18.5 -6 36.5 -6q46 0 87.5 18q41.5 18 63.5 44q1 6 2.5 17q1.5 11 3 22q1.5 11 2 21.5q0.5 10.5 0.5 15.5q0 70 -30 112q-30 42 -89 42q-29 0 -55.5 -10q-26.5 -10 -46.5 -31q-20 -21 -33 -52.5t-13 -74.5z" />
<glyph unicode="&#58;" horiz-adv-x="267" d="M173 449q0 27 16 42.5q16 15.5 42 15.5q26 0 42 -15.5q16 -15.5 16 -42.5q0 -26 -16 -42q-16 -16 -42 -16q-26 0 -42 16q-16 16 -16 42zt0 0zM89 46q0 27 16 42.5q16 15.5 42 15.5q26 0 42 -15.5q16 -15.5 16 -42.5q0 -26 -16 -42q-16 -16 -42 -16q-26 0 -42 16t-16 42z" />
<glyph unicode="&#59;" horiz-adv-x="273" d="M92 35q0 26 17 44q17 18 49 18q25 0 38.5 -17q13.5 -17 13.5 -39q0 -31 -10.5 -60.5q-10.5 -29.5 -29.5 -54.5q-19 -25 -44.5 -44.5q-25.5 -19.5 -55.5 -30.5l-16 39q38 14 61 44q23 30 28 59q-4 -2 -10 -2q-14 0 -27.5 12q-13.5 12 -13.5 32zt0 0zM179 449q0 27 16 42.5q16 15.5 42 15.5q26 0 42 -15.5q16 -15.5 16 -42.5q0 -26 -16 -42q-16 -16 -42 -16q-26 0 -42 16t-16 42z" />
<glyph unicode="&#60;" horiz-adv-x="480" d="M54 305v29l379 231l38 -62l-237 -145l-91 -38l90 -32l243 -144l-38 -60z" />
<glyph unicode="&#61;" horiz-adv-x="480" d="M55 457h424v-72h-424zM55 291h424v-72l-424 0z" />
<glyph unicode="&#62;" horiz-adv-x="480" d="M478 344v-29l-379 -231l-38 61l237 145l91 38l-90 32l-243 144l38 61z" />
<glyph unicode="&#63;" horiz-adv-x="414" d="M123 177q5 50 25 87.5q20 37.5 46.5 68q26.5 30.5 56.5 57q30 26.5 54.5 53q24.5 26.5 41 57q16.5 30.5 16.5 69.5q0 38 -20.5 58.5q-20.5 20.5 -71.5 20.5q-35 0 -69.5 -13.5q-34.5 -13.5 -63.5 -30.5l-19 58q20 12 38.5 21q18.5 9 39.5 15.5q21 6.5 45.5 10q24.5 3.5 56.5 3.5q74 0 109 -34q35 -34 35 -88q0 -54 -17 -93.5q-17 -39.5 -43 -70.5q-26 -31 -57.5 -57.5q-31.5 -26.5 -60 -54.5q-28.5 -28 -50.5 -60.5q-22 -32.5 -29 -76.5zM80 46q0 27 16 42.5q16 15.5 42 15.5q26 0 42 -15.5q16 -15.5 16 -42.5q0 -26 -16 -42q-16 -16 -42 -16q-26 0 -42 16t-16 42z" />
<glyph unicode="&#64;" horiz-adv-x="1064" d="M736 491h34l-51 -287q-5 -26 -7.5 -46.5q-2.5 -20.5 -2.5 -36.5q0 -25 8.5 -37q8.5 -12 30.5 -12q34 0 67 18q33 18 59.5 51q26.5 33 43 80q16.5 47 16.5 105q0 77 -26 136q-26 59 -73 99.5q-47 40.5 -112 61.5q-65 21 -143 21q-82 0 -153 -30q-71 -30 -124 -83q-53 -53 -83.5 -127q-30.5 -74 -30.5 -161q0 -89 27.5 -159q27.5 -70 78.5 -118q51 -48 122 -73q71 -25 158 -25q29 0 66 7q37 7 67 21l20 -64q-44 -19 -82.5 -25.5q-38.5 -6.5 -82.5 -6.5q-93 0 -174 28q-81 28 -142 83q-61 55 -96 136.5q-35 81.5 -35 188.5q0 109 37.5 197q37.5 88 101.5 150q64 62 149 95.5q85 33.5 180 33.5q90 0 167 -26.5q77 -26.5 134 -76q57 -49.5 89 -121q32 -71.5 32 -162.5q0 -64 -22 -122.5q-22 -58.5 -59.5 -102.5q-37.5 -44 -87.5 -70.5q-50 -26.5 -106 -26.5q-42 0 -66.5 18q-24.5 18 -24.5 67q0 9 1 19.5q1 10.5 3 22.5l-4 0q-15 -23 -34 -45.5q-19 -22.5 -42.5 -40.5q-23.5 -18 -50 -29.5q-26.5 -11.5 -55.5 -11.5q-24 0 -45.5 10.5q-21.5 10.5 -37.5 30.5q-16 20 -25.5 47.5q-9.5 27.5 -9.5 62.5q0 64 21 126q21 62 56.5 110q35.5 48 83 77.5q47.5 29.5 100.5 29.5q36 0 58.5 -11q22.5 -11 43.5 -27zM680 393q-17 20 -34.5 28.5q-17.5 8.5 -43.5 8.5q-39 0 -73 -24q-34 -24 -58.5 -61.5q-24.5 -37.5 -39 -84.5q-14.5 -47 -14.5 -92q0 -39 16 -67.5q16 -28.5 58 -28.5q20 0 41.5 14q21.5 14 42.5 36.5q21 22.5 40.5 50.5q19.5 28 34.5 57z" />
<glyph unicode="&#65;" horiz-adv-x="557" d="M404 194h-244l-108 -194h-85l404 711h37l101 -711h-77zM199 266h197l-29 213l-2 106h-1l-45 -108z" />
<glyph unicode="&#66;" horiz-adv-x="556" d="M561 551q0 -39 -12 -71q-12 -32 -34 -56q-22 -24 -51.5 -38.5q-29.5 -14.5 -63.5 -19.5l0 -4q22 -5 42 -16.5q20 -11.5 35 -28.5q15 -17 24 -39.5q9 -22.5 9 -49.5q0 -70 -27.5 -115.5q-27.5 -45.5 -70 -72.5q-42.5 -27 -95 -37.5q-52.5 -10.5 -103.5 -10.5q-16 0 -38.5 0q-22.5 0 -57.5 2q-60 6 -78 11l146 689q38 6 85.5 10q47.5 4 102.5 4q37 0 71 -9.5q34 -9.5 59.5 -28.5q25.5 -19 41 -49q15.5 -30 15.5 -70zt0 0zM236 64q35 0 69 8.5q34 8.5 61 26.5q27 18 43.5 47q16.5 29 16.5 71q0 31 -15 51.5q-15 20.5 -39 32.5q-24 12 -54.5 16.5q-30.5 4.5 -61.5 4.5h-70l-53 -251q6 -2 18.5 -3q12.5 -1 27 -2q14.5 -1 30 -1.5q15.5 -0.5 27.5 -0.5zt0 0zM253 390q17 0 40 0.5q23 0.5 39 2.5q23 5 49 14q26 9 47.5 25.5q21.5 16.5 35 42q13.5 25.5 13.5 63.5q0 28 -8.5 46.5q-8.5 18.5 -25 30q-16.5 11.5 -39.5 16.5q-23 5 -51 5q-32 0 -60 -1.5q-28 -1.5 -42 -4.5l-51 -240z" />
<glyph unicode="&#67;" horiz-adv-x="544" d="M480 29q-34 -23 -72 -32q-38 -9 -88 -9q-59 0 -105 21.5q-46 21.5 -78 60q-32 38.5 -49 90.5q-17 52 -17 114q0 113 33 195.5q33 82.5 87 136.5q54 54 121.5 80q67.5 26 136.5 26q57 0 93 -8q36 -8 59 -19l-36 -73q-20 11 -52.5 18.5q-32.5 7.5 -74.5 7.5q-56 0 -107.5 -24.5q-51.5 -24.5 -90.5 -70.5q-39 -46 -62 -112q-23 -66 -23 -148q0 -48 12.5 -88.5q12.5 -40.5 36 -70q23.5 -29.5 58 -46q34.5 -16.5 78.5 -16.5q47 0 78 10.5q31 10.5 56 24.5z" />
<glyph unicode="&#68;" horiz-adv-x="622" d="M189 700q38 5 86 6.5q48 1.5 87 1.5q59 0 107 -15.5q48 -15.5 81.5 -47.5q33.5 -32 51.5 -81q18 -49 18 -115q0 -44 -8 -95.5q-8 -51.5 -26.5 -102q-18.5 -50.5 -49.5 -97.5q-31 -47 -77 -83.5q-46 -36.5 -108 -58q-62 -21.5 -143 -21.5q-15 0 -39.5 0.5q-24.5 0.5 -48.5 1.5q-70 4 -80 6zM356 634q-12 0 -27 -0.5q-15 -0.5 -29 -1q-14 -0.5 -27 -1.5q-13 -1 -20 -2l-118 -560q4 -1 16 -1.5q12 -0.5 25.5 -1q13.5 -0.5 26 -1q12.5 -0.5 17.5 -0.5q87 0 147 36q60 36 97.5 91q37.5 55 54.5 121q17 66 17 125q0 45 -10 81q-10 36 -31.5 61.5q-21.5 25.5 -55.5 39.5t-83 14z" />
<glyph unicode="&#69;" horiz-adv-x="510" d="M189 700h361l-15 -74h-283l-49 -229h259l-15 -74h-259l-53 -249h288l-16 -74h-288l-79 0z" />
<glyph unicode="&#70;" horiz-adv-x="492" d="M189 700h361l-15 -74h-283l-51 -239h264l-15 -74h-264l-66 -313l-80 0z" />
<glyph unicode="&#71;" horiz-adv-x="583" d="M375 349h116h68l-65 -308q-71 -53 -176 -53q-50 0 -94.5 18q-44.5 18 -78.5 53.5q-34 35.5 -54 88.5q-20 53 -20 124q0 123 36 207q36 84 92.5 135.5q56.5 51.5 124.5 74.5q68 23 132 23q57 0 94.5 -7.5q37.5 -7.5 60.5 -18.5l-35 -73q-20 11 -53.5 18q-33.5 7 -75.5 7q-58 0 -110.5 -22.5q-52.5 -22.5 -93 -67.5q-40.5 -45 -64.5 -111.5q-24 -66.5 -24 -154.5q0 -45 11 -85q11 -40 33.5 -70q22.5 -30 56 -47.5q33.5 -17.5 79.5 -17.5q32 0 55 6.5q23 6.5 46 18.5l41 195l-112 20z" />
<glyph unicode="&#72;" horiz-adv-x="639" d="M505 321h-318l-67 -321h-80l148 700h80l-64 -305h317l64 305h80l-148 -700l-80 0z" />
<glyph unicode="&#73;" horiz-adv-x="277" d="M210 700h80l-148 -700l-80 0z" />
<glyph unicode="&#74;" horiz-adv-x="278" d="M222 700h80l-116 -546q-9 -40 -21.5 -70.5q-12.5 -30.5 -32 -51.5q-19.5 -21 -48 -31.5q-28.5 -10.5 -68.5 -10.5q-8 0 -18.5 1q-10.5 1 -21.5 3q-11 2 -21 5q-10 3 -16 7l30 71q19 -13 54 -13q21 0 35 7.5q14 7.5 24 22q10 14.5 16.5 34.5q6.5 20 11.5 46z" />
<glyph unicode="&#75;" horiz-adv-x="576" d="M239 324h-51l-68 -324h-80l148 700h80l-70 -326l40 14l287 312h99l-286 -304l-46 -31l39 -40l175 -325l-91 0z" />
<glyph unicode="&#76;" horiz-adv-x="492" d="M434 0h-316h-78l148 700h80l-133 -626l314 0z" />
<glyph unicode="&#77;" horiz-adv-x="754" d="M651 470l31 105h-4l-56 -96l-240 -316h-24l-115 316l-15 96h-4l-8 -104l-100 -471h-76l149 700h55l130 -358l15 -78h1l46 80l273 356h71l-149 -700l-80 0z" />
<glyph unicode="&#78;" horiz-adv-x="642" d="M261 458l-34 103h-3l-12 -103l-97 -458h-75l151 711h40l218 -468l33 -98h4l9 98l98 457h75l-151 -711l-37 0z" />
<glyph unicode="&#79;" horiz-adv-x="651" d="M71 256q0 92 25 175q25 83 71.5 145.5q46.5 62.5 112 99q65.5 36.5 145.5 36.5q48 0 89 -14.5q41 -14.5 70.5 -46q29.5 -31.5 46 -81.5q16.5 -50 16.5 -122q0 -94 -25 -177.5q-25 -83.5 -70 -146.5q-45 -63 -107.5 -99.5q-62.5 -36.5 -137.5 -36.5q-118 0 -177 68.5q-59 68.5 -59 199.5zt0 0zM155 257q0 -94 39 -145.5q39 -51.5 115 -51.5q56 0 102.5 31q46.5 31 80.5 84q34 53 52.5 123q18.5 70 18.5 148q0 58 -13 96q-13 38 -34.5 59.5q-21.5 21.5 -49 30q-27.5 8.5 -55.5 8.5q-57 0 -104 -31.5q-47 -31.5 -80.5 -84.5q-33.5 -53 -52.5 -122.5t-19 -144.5z" />
<glyph unicode="&#80;" horiz-adv-x="532" d="M187 693q38 9 80 12q42 3 83 3q46 0 85.5 -10q39.5 -10 68.5 -32q29 -22 45.5 -56.5q16.5 -34.5 16.5 -82.5q0 -76 -27.5 -127q-27.5 -51 -72 -81.5q-44.5 -30.5 -100.5 -43.5q-56 -13 -113 -13q-5 0 -15.5 0q-10.5 0 -22.5 0.5q-12 0.5 -23 1.5q-11 1 -16 2l-56 -266h-80zM333 636q-23 0 -44.5 -1.5q-21.5 -1.5 -35.5 -4.5l-61 -291q4 -2 13.5 -2.5q9.5 -0.5 20 -1.5q10.5 -1 20.5 -1q10 0 15 0q43 0 83 9q40 9 70.5 31q30.5 22 49 57q18.5 35 18.5 88q0 36 -12 59q-12 23 -32.5 35.5q-20.5 12.5 -47.5 17.5t-57 5z" />
<glyph unicode="&#81;" horiz-adv-x="651" d="M633 -171q-24 -7 -46.5 -9.5q-22.5 -2.5 -44.5 -2.5q-48 0 -91 10.5q-43 10.5 -82.5 22.5q-39.5 12 -76 22.5q-36.5 10.5 -71.5 10.5q-11 0 -22.5 -1q-11.5 -1 -22.5 -4l15 73q27 6 53 6q40 0 77 -10.5q37 -10.5 75.5 -22.5q38.5 -12 79.5 -22.5q41 -10.5 88 -10.5q41 0 85 10zM71 256q0 92 25 175q25 83 71.5 145.5q46.5 62.5 112 99q65.5 36.5 145.5 36.5q48 0 89 -14.5q41 -14.5 70.5 -46q29.5 -31.5 46 -81.5q16.5 -50 16.5 -122q0 -94 -25 -177.5q-25 -83.5 -70 -146.5q-45 -63 -107.5 -99.5q-62.5 -36.5 -137.5 -36.5q-118 0 -177 68.5q-59 68.5 -59 199.5zt0 0zM155 257q0 -94 39 -145.5q39 -51.5 115 -51.5q56 0 102.5 31q46.5 31 80.5 84q34 53 52.5 123q18.5 70 18.5 148q0 58 -13 96q-13 38 -34.5 59.5q-21.5 21.5 -49 30q-27.5 8.5 -55.5 8.5q-57 0 -104 -31.5q-47 -31.5 -80.5 -84.5q-33.5 -53 -52.5 -122.5t-19 -144.5z" />
<glyph unicode="&#82;" horiz-adv-x="568" d="M187 693q42 8 81 11.5q39 3.5 78 3.5q38 0 74 -9.5q36 -9.5 63.5 -30q27.5 -20.5 44 -53.5q16.5 -33 16.5 -80q0 -88 -51.5 -146.5q-51.5 -58.5 -149.5 -75.5l36 -36l108 -277h-87l-120 302l-94 15l-66 -317h-80zM341 636q-24 0 -48 -1.5q-24 -1.5 -40 -4.5l-55 -258h69q36 0 70.5 7q34.5 7 62 25q27.5 18 44 49q16.5 31 16.5 78q0 18 -7 36.5q-7 18.5 -21 34q-14 15.5 -37 25t-54 9.5z" />
<glyph unicode="&#83;" horiz-adv-x="505" d="M388 180q0 36 -18.5 61q-18.5 25 -46.5 45.5q-28 20.5 -60.5 39.5q-32.5 19 -60.5 44q-28 25 -46.5 59q-18.5 34 -18.5 84q0 53 19.5 91q19.5 38 53 62q33.5 24 79 35q45.5 11 96.5 11q58 0 104 -9q46 -9 72 -23l-40 -71q-20 11 -59.5 21q-39.5 10 -91.5 10q-66 0 -107.5 -30q-41.5 -30 -41.5 -87q0 -37 18.5 -62.5q18.5 -25.5 46.5 -46q28 -20.5 60.5 -39.5q32.5 -19 60.5 -43.5q28 -24.5 46.5 -58.5q18.5 -34 18.5 -83q0 -97 -70 -149.5q-70 -52.5 -201 -52.5q-67 0 -113.5 11.5q-46.5 11.5 -70.5 25.5l41 73q23 -13 62.5 -25.5q39.5 -12.5 93.5 -12.5q31 0 62 5.5q31 5.5 56 19.5q25 14 40.5 37t15.5 58z" />
<glyph unicode="&#84;" horiz-adv-x="528" d="M602 626h-207l-132 -626h-80l132 626h-205l15 74l492 0z" />
<glyph unicode="&#85;" horiz-adv-x="618" d="M573 700h76l-98 -467q-14 -64 -35 -110q-21 -46 -52.5 -75q-31.5 -29 -75.5 -43q-44 -14 -102 -14q-55 0 -93 12.5q-38 12.5 -61.5 35q-23.5 22.5 -34 55q-10.5 32.5 -10.5 71.5q0 41 11 93l93 442h80l-93 -443q-11 -44 -11 -80q0 -63 33 -87.5q33 -24.5 98 -24.5q39 0 68.5 11q29.5 11 51 34q21.5 23 36 59q14.5 36 25.5 87z" />
<glyph unicode="&#86;" horiz-adv-x="541" d="M253 221v-107h2l45 109l265 477h86l-402 -711h-37l-108 711l82 0z" />
<glyph unicode="&#87;" horiz-adv-x="788" d="M214 233l-9 -116h1l39 118l235 465h43l37 -467l-9 -116h1l40 118l213 465h82l-336 -711h-44l-38 469l6 106h-4l-40 -107l-234 -468h-44l-39 711l82 0z" />
<glyph unicode="&#88;" horiz-adv-x="588" d="M289 358l-130 342h87l86 -237l12 -57l34 57l191 237h97l-279 -339l142 -361h-87l-96 251l-14 60l-38 -60l-204 -251l-97 0z" />
<glyph unicode="&#89;" horiz-adv-x="531" d="M241 278l-133 422h87l89 -306l3 -61h1l30 63l217 304h90l-304 -421l-59 -279l-80 0z" />
<glyph unicode="&#90;" horiz-adv-x="520" d="M14 75l435 511l49 40h-366l15 74h447l-15 -75l-438 -514l-47 -37h367l-15 -74l-447 0z" />
<glyph unicode="&#91;" horiz-adv-x="291" d="M213 700h76h97l-15 -70h-97l-168 -790h98l-15 -70h-98l-75 0z" />
<glyph unicode="&#92;" horiz-adv-x="380" d="M449 -111l-66 -29l-342 824l69 28z" />
<glyph unicode="&#93;" horiz-adv-x="291" d="M109 -230h-75h-97l15 70h96l167 790h-97l15 70h99l74 0z" />
<glyph unicode="&#94;" horiz-adv-x="500" d="M288 711h29l169 -276h-83l-79 135l-23 69l-31 -70l-93 -134l-75 0z" />
<glyph unicode="&#95;" horiz-adv-x="408" d="M-44 -137h408v-68l-408 0z" />
<glyph unicode="&#96;" horiz-adv-x="238" d="M297 571h-43l-81 128l4 21l91 0z" />
<glyph unicode="&#97;" horiz-adv-x="487" d="M414 197q-8 -37 -11 -75q-3 -38 -3 -71q0 -15 0 -28.5q0 -13.5 2 -24.5l-56 0l-14 87h-4q-12 -17 -29.5 -34.5q-17.5 -17.5 -38.5 -31.5q-21 -14 -45 -22.5q-24 -8.5 -51 -8.5q-119 0 -119 155q0 64 16.5 130q16.5 66 51 119q34.5 53 89 87q54.5 34 131.5 34q28 0 68.5 -6.5q40.5 -6.5 75.5 -17.5zM187 52q24 0 46 11.5q22 11.5 41.5 28.5q19.5 17 34.5 36.5q15 19.5 24 36.5l56 270q-30 14 -76 14q-46 0 -81 -27q-35 -27 -59 -70.5q-24 -43.5 -36 -98.5q-12 -55 -12 -110q0 -38 15 -64.5t47 -26.5z" />
<glyph unicode="&#98;" horiz-adv-x="521" d="M185 700h75l-61 -286h4q14 18 32 35.5q18 17.5 40 31.5q22 14 47 22.5q25 8.5 54 8.5q59 0 86 -41.5q27 -41.5 27 -104.5q0 -90 -25 -159.5q-25 -69.5 -66 -117.5q-41 -48 -93.5 -73q-52.5 -25 -107.5 -25q-54 0 -94.5 12q-40.5 12 -59.5 28zM352 448q-25 0 -51 -12.5q-26 -12.5 -49.5 -32.5q-23.5 -20 -43 -44.5q-19.5 -24.5 -31.5 -47.5l-50 -235q30 -21 85 -21q32 0 67 19.5q35 19.5 64 57q29 37.5 47.5 92q18.5 54.5 18.5 124.5q0 51 -15.5 75.5t-41.5 24.5z" />
<glyph unicode="&#99;" horiz-adv-x="420" d="M365 43q-15 -13 -34.5 -23q-19.5 -10 -40 -17q-20.5 -7 -40.5 -11q-20 -4 -38 -4q-49 0 -80.5 15.5q-31.5 15.5 -49.5 39.5q-18 24 -25 52q-7 28 -7 53q0 85 23 152.5q23 67.5 61.5 114.5q38.5 47 88.5 72q50 25 103 25q38 0 62.5 -7q24.5 -7 44.5 -16l-28 -62q-17 10 -42 15.5q-25 5.5 -54 5.5q-34 0 -66.5 -23q-32.5 -23 -57.5 -60.5q-25 -37.5 -40 -86q-15 -48.5 -15 -99.5q0 -65 27 -96q27 -31 73 -31q30 0 63 13.5q33 13.5 53 27.5z" />
<glyph unicode="&#100;" horiz-adv-x="509" d="M419 172q-8 -39 -12 -73q-4 -34 -4 -63q0 -11 0.5 -20q0.5 -9 1.5 -18l-50 0l-14 87h-4q-12 -17 -30 -34.5q-18 -17.5 -40 -31.5q-22 -14 -46.5 -22.5q-24.5 -8.5 -50.5 -8.5q-55 0 -87.5 40.5q-32.5 40.5 -32.5 128.5q0 59 17 121.5q17 62.5 50 113.5q33 51 82.5 84q49.5 33 114.5 33q18 0 31 -1q13 -1 24.5 -3q11.5 -2 21.5 -5.5q10 -3.5 21 -7.5l44 208h75zM198 52q21 0 43 11.5q22 11.5 41.5 28.5q19.5 17 35 36.5q15.5 19.5 24.5 36.5l56 260q-17 11 -38.5 15.5q-21.5 4.5 -56.5 4.5q-40 0 -72 -24.5q-32 -24.5 -54.5 -65.5q-22.5 -41 -34.5 -94q-12 -53 -12 -109q0 -41 16 -70.5t52 -29.5z" />
<glyph unicode="&#101;" horiz-adv-x="463" d="M389 49q-35 -30 -82.5 -45.5q-47.5 -15.5 -95.5 -15.5q-80 0 -120.5 46q-40.5 46 -40.5 128q0 82 23 147q23 65 60.5 110q37.5 45 85 69q47.5 24 97.5 24q36 0 62.5 -10q26.5 -10 43.5 -26.5q17 -16.5 25 -38q8 -21.5 8 -45.5q0 -71 -69 -111.5q-69 -40.5 -201 -40.5q-12 0 -25 0.5q-13 0.5 -27 1.5q-4 -19 -6 -36q-2 -17 -2 -30q0 -55 25 -89.5q25 -34.5 78 -34.5q44 0 80.5 14.5q36.5 14.5 56.5 30.5zM304 448q-55 0 -95.5 -37.5q-40.5 -37.5 -61.5 -112.5q38 0 79 2q41 2 74.5 10.5q33.5 8.5 55.5 27q22 18.5 22 51.5q0 10 -3.5 20.5q-3.5 10.5 -11.5 19q-8 8.5 -22.5 14t-36.5 5.5z" />
<glyph unicode="&#102;" horiz-adv-x="278" d="M219 436l-80 -470q-6 -37 -16.5 -68.5q-10.5 -31.5 -27.5 -55q-17 -23.5 -43 -37q-26 -13.5 -63 -13.5q-30 0 -55.5 4.5q-25.5 4.5 -47.5 15.5v56q42 -7 58.5 -9.5q16.5 -2.5 40.5 -2.5q38 0 57 36.5q19 36.5 32 115.5l70 428h-77l13 64h73l13 67q7 37 17 64q10 27 26.5 45q16.5 18 41 27q24.5 9 59.5 9q33 0 64 -6.5q31 -6.5 56 -17.5l-22 -59q-49 19 -93 19q-37 0 -54 -25.5q-17 -25.5 -26 -81.5l-7 -41h101l-12 -64z" />
<glyph unicode="&#103;" horiz-adv-x="505" d="M385 -23q-21 -98 -72.5 -143.5q-51.5 -45.5 -136.5 -45.5q-65 0 -107 16.5q-42 16.5 -64 28.5l33 56q8 -4 19.5 -10.5q11.5 -6.5 28 -12.5q16.5 -6 40 -10q23.5 -4 55.5 -4q50 0 84 36q34 36 51 113l18 84h-4q-14 -19 -30.5 -36q-16.5 -17 -36.5 -30.5q-20 -13.5 -43.5 -21.5q-23.5 -8 -51.5 -8q-54 0 -87 39q-33 39 -33 111q0 67 18.5 133q18.5 66 55 118.5q36.5 52.5 90 85.5q53.5 33 123.5 33q54 0 91 -9q37 -9 65 -22zM196 53q25 0 49.5 13q24.5 13 45 33.5q20.5 20.5 37 44.5q16.5 24 27.5 45l51 241q-16 9 -39 12q-23 3 -47 3q-41 0 -76 -24q-35 -24 -60.5 -64.5q-25.5 -40.5 -40.5 -93.5q-15 -53 -15 -111q0 -46 18.5 -72.5t49.5 -26.5z" />
<glyph unicode="&#104;" horiz-adv-x="529" d="M341 0l60 285q6 30 10 53.5q4 23.5 4 41.5q0 37 -15 52.5q-15 15.5 -47 15.5q-26 0 -53 -13.5q-27 -13.5 -52 -34.5q-25 -21 -44.5 -47q-19.5 -26 -29.5 -50l-63 -303h-75l148 700h75l-62 -286h4q13 16 31.5 33q18.5 17 42.5 31.5q24 14.5 52 24q28 9.5 61 9.5q49 0 77 -23.5q28 -23.5 28 -85.5q0 -42 -13 -101l-64 -302z" />
<glyph unicode="&#105;" horiz-adv-x="259" d="M160 500h75l-106 -500h-75zM176 653q0 23 15.5 39q15.5 16 38.5 16q23 0 39 -16q16 -16 16 -39q0 -23 -16 -38.5q-16 -15.5 -39 -15.5q-23 0 -38.5 15.5t-15.5 38.5z" />
<glyph unicode="&#106;" horiz-adv-x="249" d="M148 500h75l-112 -527q-20 -93 -62 -137q-42 -44 -114 -44q-8 0 -15.5 0.5q-7.5 0.5 -15.5 1.5l15 65q30 0 49.5 8.5q19.5 8.5 33 26.5q13.5 18 23 45q9.5 27 17.5 64zM164 653q0 23 15.5 39q15.5 16 38.5 16q23 0 39 -16q16 -16 16 -39q0 -23 -16 -38.5q-16 -15.5 -39 -15.5q-23 0 -38.5 15.5t-15.5 38.5z" />
<glyph unicode="&#107;" horiz-adv-x="449" d="M212 225h-54l-47 -225h-75l148 700h75l-91 -426l43 11l180 215h92l-178 -203l-47 -33l38 -39l112 -225l-83 0z" />
<glyph unicode="&#108;" horiz-adv-x="270" d="M133 119q-3 -17 -3 -28q0 -19 6.5 -27.5q6.5 -8.5 17.5 -8.5q20 0 33.5 2.5q13.5 2.5 32.5 9.5l0 -57q-9 -5 -21 -8.5q-12 -3.5 -24.5 -5.5q-12.5 -2 -25 -3.5q-12.5 -1.5 -22.5 -1.5q-35 0 -56 16q-21 16 -21 59q0 20 6 49l124 585l75 0z" />
<glyph unicode="&#109;" horiz-adv-x="763" d="M305 0l60 283q8 35 12 62q4 27 4 47q0 27 -10 41.5q-10 14.5 -34 14.5q-25 0 -49 -13q-24 -13 -45 -32.5q-21 -19.5 -38.5 -41.5q-17.5 -22 -27.5 -40l-66 -321h-75l106 500h53l-6 -86h4q16 16 34.5 33.5q18.5 17.5 41 31.5q22.5 14 49 23.5q26.5 9.5 58.5 9.5q45 0 60.5 -28q15.5 -28 15.5 -78q15 19 35 38q20 19 43.5 34q23.5 15 49.5 24.5q26 9.5 52 9.5q46 0 70.5 -21.5q24.5 -21.5 24.5 -79.5q0 -42 -15 -111l-63 -300h-75l63 301q6 29 9.5 52q3.5 23 3.5 40q0 27 -11 41q-11 14 -37 14q-21 0 -44.5 -13.5q-23.5 -13.5 -45.5 -33.5q-22 -20 -39.5 -43q-17.5 -23 -27.5 -43l-65 -315z" />
<glyph unicode="&#110;" horiz-adv-x="522" d="M331 0l67 316q4 18 7 35.5q3 17.5 3 31.5q0 29 -13.5 47q-13.5 18 -50.5 18q-26 0 -51 -12q-25 -12 -47 -30.5q-22 -18.5 -39.5 -41q-17.5 -22.5 -29.5 -44.5l-66 -320h-75l106 500h52l-4 -86h4q13 16 31 33.5q18 17.5 40.5 31.5q22.5 14 50.5 23.5q28 9.5 62 9.5q50 0 79 -24q29 -24 29 -84q0 -30 -9 -72l-71 -332z" />
<glyph unicode="&#111;" horiz-adv-x="498" d="M50 156q0 79 20.5 144.5q20.5 65.5 56.5 112.5q36 47 83.5 73q47.5 26 101.5 26q42 0 71.5 -13.5q29.5 -13.5 48 -37q18.5 -23.5 26.5 -54q8 -30.5 8 -63.5q0 -75 -19.5 -140q-19.5 -65 -54 -113q-34.5 -48 -80.5 -75.5q-46 -27.5 -100 -27.5q-45 0 -75.5 14.5q-30.5 14.5 -50 38.5q-19.5 24 -28 54q-8.5 30 -8.5 61zt0 0zM130 174q0 -59 22 -90.5q22 -31.5 70 -31.5q33 0 62.5 23.5q29.5 23.5 52 63.5q22.5 40 36 91.5q13.5 51.5 13.5 107.5q0 51 -18.5 80.5q-18.5 29.5 -70.5 29.5q-33 0 -63 -22.5q-30 -22.5 -53.5 -60.5q-23.5 -38 -37 -87.5t-13.5 -103.5z" />
<glyph unicode="&#112;" horiz-adv-x="508" d="M144 500h52l-5 -86h4q14 18 31.5 35.5q17.5 17.5 38.5 31.5q21 14 46 22.5q25 8.5 54 8.5q24 0 45 -7.5q21 -7.5 37 -25q16 -17.5 25.5 -46.5q9.5 -29 9.5 -71q0 -88 -24 -157.5q-24 -69.5 -63 -117.5q-39 -48 -87.5 -73.5q-48.5 -25.5 -96.5 -25.5q-35 0 -61.5 6.5q-26.5 6.5 -35.5 13.5l-44 -208h-75zM337 448q-27 0 -51.5 -14q-24.5 -14 -45 -34.5q-20.5 -20.5 -36.5 -44q-16 -23.5 -26 -43.5l-49 -237q17 -13 35 -18q18 -5 39 -5q39 0 74.5 21.5q35.5 21.5 63.5 61.5q28 40 44.5 96q16.5 56 16.5 125q0 40 -16.5 66t-48.5 26z" />
<glyph unicode="&#113;" horiz-adv-x="503" d="M340 -200h-75l61 284h-4q-12 -16 -27.5 -33q-15.5 -17 -35 -31q-19.5 -14 -43.5 -23q-24 -9 -51 -9q-32 0 -55 11.5q-23 11.5 -37 32q-14 20.5 -20.5 48.5q-6.5 28 -6.5 61q0 67 22 133q22 66 61 118q39 52 93 84.5q54 32.5 119 32.5q21 0 42.5 -3q21.5 -3 40.5 -7.5q19 -4.5 35 -10q16 -5.5 25 -11.5zM186 52q25 0 50.5 15q25.5 15 47.5 37.5q22 22.5 39 48q17 25.5 27 46.5l50 231q-16 9 -38.5 12q-22.5 3 -39.5 3q-39 0 -74.5 -25q-35.5 -25 -62.5 -66.5q-27 -41.5 -43 -95q-16 -53.5 -16 -110.5q0 -48 15.5 -72t44.5 -24z" />
<glyph unicode="&#114;" horiz-adv-x="327" d="M362 434q-9 2 -18.5 3q-9.5 1 -17.5 1q-51 0 -88 -32q-37 -32 -58 -78l-69 -328h-75l106 500h52v-86h4q12 19 26 35.5q14 16.5 31 29.5q17 13 37 20.5q20 7.5 44 7.5q22 0 46 -7z" />
<glyph unicode="&#115;" horiz-adv-x="398" d="M259 141q0 26 -13 44q-13 18 -33 32.5q-20 14.5 -43 28.5q-23 14 -43 31.5q-20 17.5 -33 41q-13 23.5 -13 58.5q0 28 13.5 52.5q13.5 24.5 37 43q23.5 18.5 56 29q32.5 10.5 70.5 10.5q53 0 82 -7q29 -7 52 -20l-25 -60q-40 23 -109 23q-42 0 -69.5 -17.5q-27.5 -17.5 -27.5 -53.5q0 -21 13 -36.5q13 -15.5 33 -29.5q20 -14 43 -28.5q23 -14.5 43 -33q20 -18.5 33 -43.5q13 -25 13 -59q0 -78 -52.5 -118.5q-52.5 -40.5 -140.5 -40.5q-45 0 -82.5 9q-37.5 9 -60.5 23l28 63q20 -13 52.5 -22q32.5 -9 67.5 -9q49 0 78.5 21.5t29.5 67.5z" />
<glyph unicode="&#116;" horiz-adv-x="313" d="M71 500h74l21 99l80 23l-26 -122h131l-15 -64h-130l-63 -302q-2 -12 -3.5 -22q-1.5 -10 -1.5 -18q0 -24 11 -33q11 -9 33 -9q24 0 44 6q20 6 40 18l0 -61q-21 -12 -54 -19.5q-33 -7.5 -63 -7.5q-91 0 -91 83q0 17 5 42l68 323l-75 0z" />
<glyph unicode="&#117;" horiz-adv-x="511" d="M213 500l-70 -333q-6 -27 -6 -50q0 -28 11 -46.5q11 -18.5 40 -18.5q24 0 48.5 12q24.5 12 47 31q22.5 19 41 42q18.5 23 30.5 45l67 318h75l-63 -297q-4 -17 -8 -41.5q-4 -24.5 -7.5 -51.5q-3.5 -27 -5.5 -52.5q-2 -25.5 -2 -44.5v-13h-59v95h-4q-15 -20 -34.5 -39q-19.5 -19 -43 -34q-23.5 -15 -50.5 -24.5q-27 -9.5 -57 -9.5q-22 0 -40.5 5q-18.5 5 -32.5 17.5q-14 12.5 -22 33q-8 20.5 -8 52.5q0 35 10 79l68 325z" />
<glyph unicode="&#118;" horiz-adv-x="447" d="M192 207l9 -95h2l43 97l169 291h86l-312 -511h-32l-97 511l80 0z" />
<glyph unicode="&#119;" horiz-adv-x="685" d="M427 500l47 -292l4 -96h1l39 98l147 290h76l-269 -511h-38l-53 330l-1 82h-2l-37 -83l-190 -329h-36l-58 511h76l31 -291l-2 -97h4l40 99l165 289z" />
<glyph unicode="&#120;" horiz-adv-x="484" d="M203 256l-107 244h85l59 -138l18 -57l41 57l121 138h91l-212 -240l119 -260h-85l-68 152l-20 60l-42 -60l-134 -152l-91 0z" />
<glyph unicode="&#121;" horiz-adv-x="439" d="M194 176l5 -96h5l38 97l166 323h80l-236 -446q-26 -49 -51.5 -95.5q-25.5 -46.5 -52.5 -83q-27 -36.5 -56 -58.5q-29 -22 -60 -22q-17 0 -29.5 2q-12.5 2 -22.5 7l24 69q11 -4 24 -4q29 0 58 30q29 30 65 101l-86 500l80 0z" />
<glyph unicode="&#122;" horiz-adv-x="429" d="M11 69l281 319l55 43h-258l15 69h337l-15 -69l-284 -322l-54 -40h261l-14 -69l-337 0z" />
<glyph unicode="&#123;" horiz-adv-x="331" d="M231 -230h-81q-35 0 -54 19.5q-19 19.5 -18 55.5q0 14 4 29l50 238q4 18 4 32q2 32 -14.5 44.5q-16.5 12.5 -46.5 12.5l15 68q74 0 93 85l52 242q10 47 38.5 76q28.5 29 73.5 29h81l-15 -70h-48q-26 0 -40.5 -13.5q-14.5 -13.5 -21.5 -45.5l-49 -237q-9 -44 -34 -67q-25 -23 -52 -28l-1 -6q20 -3 34.5 -23q14.5 -20 13.5 -52q0 -5 -1.5 -12q-1.5 -7 -6 -31.5q-4.5 -24.5 -15.5 -75q-11 -50.5 -31 -141.5q-1 -6 -2 -11q-1 -5 -1 -10q-1 -38 42 -38l47 0z" />
<glyph unicode="&#124;" horiz-adv-x="238" d="M115 700h69v-830l-69 0z" />
<glyph unicode="&#125;" horiz-adv-x="331" d="M232 359q-4 -17 -4 -30q-1 -33 15.5 -46q16.5 -13 46.5 -13l-16 -68q-36 0 -60 -21q-24 -21 -34 -64q0 -1 -2.5 -12q-2.5 -11 -6 -28q-3.5 -17 -8 -39q-4.5 -22 -8.5 -44q-11 -53 -25 -119q-10 -47 -39 -76q-29 -29 -74 -29h-80l16 70h47q25 0 39.5 13.5q14.5 13.5 20.5 45.5l50 237q10 44 34.5 67q24.5 23 52.5 28l2 6q-22 3 -36.5 23q-14.5 20 -13.5 52q0 5 1 11.5q1 6.5 2 12.5l51 236q2 6 2.5 11q0.5 5 0.5 10q1 38 -41 38h-46l14 70h81q35 0 54.5 -19q19.5 -19 17.5 -56q0 -14 -4 -29z" />
<glyph unicode="&#126;" horiz-adv-x="480" d="M46 361q43 33 78 46q35 13 64 13q28 0 52 -8.5q24 -8.5 46 -19q22 -10.5 43 -19q21 -8.5 44 -8.5q19 0 39 8q20 8 43 28l34 -61q-38 -26 -68.5 -36.5q-30.5 -10.5 -55.5 -10.5q-27 0 -49.5 8.5q-22.5 8.5 -43 19q-20.5 10.5 -41 19q-20.5 8.5 -44.5 8.5q-23 0 -49 -10.5q-26 -10.5 -58 -36.5z" />
<glyph unicode="&#160;" horiz-adv-x="267" />
<glyph unicode="&#161;" horiz-adv-x="290" d="M96 -200h-78l74 347l53 176h47l-22 -176zM131 453q0 27 16 42.5q16 15.5 42 15.5q26 0 42 -15.5q16 -15.5 16 -42.5q0 -26 -16 -42q-16 -16 -42 -16q-26 0 -42 16t-16 42z" />
<glyph unicode="&#162;" horiz-adv-x="520" d="M419 43q-25 -21 -59 -34q-34 -13 -66 -18l-19 -91h-66l19 90q-38 6 -63 23q-25 17 -39 39.5q-14 22.5 -19.5 47.5q-5.5 25 -5.5 48q0 77 19 139.5q19 62.5 51.5 109q32.5 46.5 75.5 75q43 28.5 91 36.5l20 92h67l-20 -89q26 -3 45.5 -9q19.5 -6 36.5 -13l-28 -62q-13 8 -32 13q-19 5 -42 7l-83 -393q27 4 54 16q27 12 44 23zM181 179q0 -55 18.5 -85.5q18.5 -30.5 51.5 -38.5l82 389q-30 -8 -57.5 -32.5q-27.5 -24.5 -48.5 -60.5q-21 -36 -33.5 -80.5t-12.5 -91.5z" />
<glyph unicode="&#163;" horiz-adv-x="520" d="M118 397h65q-4 18 -6 38.5q-2 20.5 -2 46.5q0 57 20 100.5q20 43.5 53.5 72q33.5 28.5 78.5 43q45 14.5 96 14.5q40 0 75.5 -8.5q35.5 -8.5 58.5 -21.5l-27 -64q-20 11 -52 18q-32 7 -72 7q-31 0 -58.5 -10.5q-27.5 -10.5 -48 -31q-20.5 -20.5 -32.5 -50q-12 -29.5 -12 -67.5q0 -31 2.5 -51q2.5 -20 6.5 -36l155 0l-15 -64h-125q2 -12 3 -27q1 -15 1 -35q0 -33 -6.5 -61q-6.5 -28 -16 -50.5q-9.5 -22.5 -21.5 -39q-12 -16.5 -23 -26.5l-45 -34l-1 -5l62 14h244l-15 -69h-424l15 71q30 0 57.5 15q27.5 15 48.5 40.5q21 25.5 33.5 60.5q12.5 35 12.5 77q0 20 -2 36.5q-2 16.5 -5 32.5l-94 0z" />
<glyph unicode="&#164;" horiz-adv-x="520" d="M111 596l78 -77l21 -35q42 33 103 33q59 0 103 -33l22 35l78 77l48 -49l-76 -78l-35 -22q32 -43 32 -102q0 -60 -32 -103l35 -21l76 -78l-48 -48l-78 77l-21 33q-43 -31 -104 -31q-62 0 -103 31l-21 -33l-78 -77l-49 48l77 78l34 22q-31 42 -31 102q0 29 8.5 55q8.5 26 22.5 48l-34 21l-77 78zM211 345q0 -45 28.5 -75q28.5 -30 73.5 -30q45 0 74 30q29 30 29 75q0 45 -29 75.5q-29 30.5 -74 30.5q-45 0 -73.5 -30.5t-28.5 -75.5z" />
<glyph unicode="&#165;" horiz-adv-x="520" d="M129 328h89l-115 372h87l92 -306l3 -61h1l30 63l213 304h90l-270 -372h90l-13 -60h-115l-13 -63h115l-13 -60h-115l-30 -145h-80l30 145h-115l12 60h116l13 63l-115 0z" />
<glyph unicode="&#166;" horiz-adv-x="238" d="M115 206h69v-336h-69zM184 364h-69v336l69 0z" />
<glyph unicode="&#167;" horiz-adv-x="473" d="M88 337q0 44 21.5 75q21.5 31 55.5 54l46 18q-23 19 -32.5 40q-9.5 21 -9.5 46q0 30 14 56q14 26 38 45q24 19 56.5 30q32.5 11 70.5 11q52 0 83.5 -9q31.5 -9 54.5 -23l-29 -61q-20 11 -49.5 18q-29.5 7 -64.5 7q-43 0 -69.5 -21.5q-26.5 -21.5 -26.5 -55.5q0 -21 16 -34q16 -13 38 -23q22 -10 48.5 -20q26.5 -10 48.5 -25.5q22 -15.5 37 -38.5q15 -23 15 -60q0 -43 -23 -77q-23 -34 -55 -54l-54 -18q23 -16 35 -37q12 -21 12 -56q0 -34 -14.5 -59.5q-14.5 -25.5 -38.5 -42.5q-24 -17 -56 -25.5q-32 -8.5 -68 -8.5q-52 0 -84.5 11q-32.5 11 -55.5 25l32 61q20 -11 48.5 -20q28.5 -9 64.5 -9q40 0 67 15.5q27 15.5 27 52.5q0 22 -14 37q-14 15 -36 26.5q-22 11.5 -48.5 23.5q-26.5 12 -48.5 28q-22 16 -37 39q-15 23 -15 59zt0 0zM370 355q0 22 -9 36q-9 14 -25 24.5q-16 10.5 -37 18.5q-21 8 -45 18q-15 -6 -30.5 -15.5q-15.5 -9.5 -28 -22q-12.5 -12.5 -20 -29q-7.5 -16.5 -7.5 -37.5q0 -21 9 -36q9 -15 24 -26q15 -11 35.5 -19.5q20.5 -8.5 43.5 -17.5q15 6 30.5 15.5q15.5 9.5 29 22.5q13.5 13 22 30t8.5 38z" />
<glyph unicode="&#168;" horiz-adv-x="245" d="M88 653q0 22 12.5 36.5q12.5 14.5 33.5 14.5q21 0 34 -14.5q13 -14.5 13 -36.5q0 -20 -13 -34.5q-13 -14.5 -34 -14.5q-21 0 -33.5 14.5q-12.5 14.5 -12.5 34.5zt0 0zM271 654q0 21 12.5 35.5q12.5 14.5 33.5 14.5q22 0 34.5 -14.5q12.5 -14.5 12.5 -35.5q0 -21 -12.5 -35.5q-12.5 -14.5 -34.5 -14.5q-21 0 -33.5 14.5t-12.5 35.5z" />
<glyph unicode="&#169;" horiz-adv-x="806" d="M77 290q0 83 28 148.5q28 65.5 76 110.5q48 45 112 69q64 24 136 24q72 0 136 -24q64 -24 112 -69q48 -45 76 -110.5q28 -65.5 28 -148.5q0 -83 -28 -148.5q-28 -65.5 -76 -110.5q-48 -45 -112 -69q-64 -24 -136 -24q-80 0 -145 24q-65 24 -111 69q-46 45 -71 110.5q-25 65.5 -25 148.5zt0 0zM147 290q0 -69 22 -122.5q22 -53.5 60 -89.5q38 -36 89.5 -55q51.5 -19 110.5 -19q59 0 110.5 19q51.5 19 89.5 55q38 36 60 89.5q22 53.5 22 122.5q0 69 -22 122.5q-22 53.5 -60 89.5q-38 36 -89.5 55q-51.5 19 -110.5 19q-59 0 -110.5 -19q-51.5 -19 -89.5 -55q-38 -36 -60 -89.5q-22 -53.5 -22 -122.5zt0 0zM545 127q-23 -13 -51.5 -20q-28.5 -7 -66.5 -7q-81 0 -123.5 51q-42.5 51 -42.5 139q0 91 45.5 140.5q45.5 49.5 120.5 49.5q18 0 32.5 -2q14.5 -2 27 -5.5q12.5 -3.5 24.5 -8.5q12 -5 27 -11l-26 -61q-22 11 -42 15q-20 4 -34 4q-42 0 -68.5 -26q-26.5 -26 -26.5 -95q0 -58 26 -89.5q26 -31.5 77 -32.5q47 0 80 18z" />
<glyph unicode="&#170;" horiz-adv-x="381" d="M124 677q26 13 61.5 22q35.5 9 83.5 9q47 0 71.5 -21q24.5 -21 24.5 -53q0 -25 -7.5 -57.5q-7.5 -32.5 -17 -67.5q-9.5 -35 -17 -68.5q-7.5 -33.5 -7.5 -60.5l-50 0l-3 46h-3q-17 -17 -43 -33.5q-26 -16.5 -67 -16.5q-45 0 -67.5 25.5q-22.5 25.5 -22.5 60.5q0 31 14.5 53q14.5 22 38.5 36.5q24 14.5 55.5 21q31.5 6.5 66.5 6.5q14 0 28 -1q14 -1 28 -3q6 19 6 34q0 43 -57 43q-38 0 -64.5 -7.5q-26.5 -7.5 -46.5 -16.5zM171 432q41 0 64.5 18.5q23.5 18.5 35.5 36.5l8 42q-10 1 -19.5 1q-9.5 0 -20.5 0q-21 0 -40.5 -2.5q-19.5 -2.5 -35 -9q-15.5 -6.5 -25 -18.5q-9.5 -12 -9.5 -31q0 -16 10 -26.5t32 -10.5z" />
<glyph unicode="&#171;" horiz-adv-x="454" d="M212 259l198 228l44 -46l-123 -144l-56 -37l34 -37l67 -141l-54 -42zM38 259l200 230l45 -47l-124 -145l-57 -37l35 -37l67 -142l-54 -43z" />
<glyph unicode="&#172;" horiz-adv-x="505" d="M67 392h424v-192h-70v120l-354 0z" />
<glyph unicode="&#173;" horiz-adv-x="342" d="M79 322h230l-17 -68l-229 0z" />
<glyph unicode="&#174;" horiz-adv-x="700" d="M137 451q0 64 21 113.5q21 49.5 57.5 83q36.5 33.5 84.5 51q48 17.5 102 17.5q55 0 103.5 -17.5q48.5 -17.5 84.5 -51q36 -33.5 56.5 -83q20.5 -49.5 20.5 -113.5q0 -64 -21 -113.5q-21 -49.5 -57.5 -83q-36.5 -33.5 -84.5 -51q-48 -17.5 -102 -17.5q-56 0 -104 17.5q-48 17.5 -84 51q-36 33.5 -56.5 83q-20.5 49.5 -20.5 113.5zt0 0zM200 451q0 -52 16 -90.5q16 -38.5 43.5 -64q27.5 -25.5 64.5 -38.5q37 -13 78 -13q43 0 80 12.5q37 12.5 64 38q27 25.5 42.5 64q15.5 38.5 15.5 91.5q0 52 -16 90.5q-16 38.5 -43.5 64q-27.5 25.5 -64 38.5q-36.5 13 -78.5 13q-44 0 -81 -13q-37 -13 -64 -38.5q-27 -25.5 -42 -64q-15 -38.5 -15 -90.5zt0 0zM299 581q16 5 45 7.5q29 2.5 55 2.5q42 0 72 -17.5q30 -17.5 30 -60.5q0 -32 -20.5 -49q-20.5 -17 -50.5 -19l28 -14l74 -109h-61l-72 104l-48 15v-119h-52zM388 546q-11 0 -21 -0.5q-10 -0.5 -16 -3.5l0 -71h34q29 0 45 9q16 9 16 31q0 35 -58 35z" />
<glyph unicode="&#175;" horiz-adv-x="313" d="M134 643h281l-13 -62l-282 0z" />
<glyph unicode="&#176;" horiz-adv-x="425" d="M141 571q0 31 11 57q11 26 30 44.5q19 18.5 45 29q26 10.5 55 10.5q29 0 55 -9.5q26 -9.5 45 -28q19 -18.5 30 -44.5q11 -26 11 -59q0 -33 -11 -59q-11 -26 -30 -44.5q-19 -18.5 -45 -28q-26 -9.5 -55 -9.5q-29 0 -55 9.5q-26 9.5 -45 28q-19 18.5 -30 44.5q-11 26 -11 59zt0 0zM205 571q0 -38 23 -59.5q23 -21.5 54 -21.5q31 0 54 21.5q23 21.5 23 59.5q0 38 -23 59.5q-23 21.5 -54 21.5q-31 0 -54 -21.5t-23 -59.5z" />
<glyph unicode="&#177;" horiz-adv-x="480" d="M55 493h176v181h72v-181h176v-72h-176v-120h-72v120h-176zM55 250h424v-72l-424 0z" />
<glyph unicode="&#178;" horiz-adv-x="377" d="M435 713q0 -32 -14.5 -64.5q-14.5 -32.5 -39 -65q-24.5 -32.5 -56.5 -63q-32 -30.5 -66 -58.5l-50 -31v-3l57 16h131l-14 -64h-275l7 33q18 13 43.5 32.5q25.5 19.5 53.5 43.5q28 24 55 51q27 27 49 54.5q22 27.5 35.5 53.5q13.5 26 13.5 49q0 46 -55 46q-26 0 -52 -9.5q-26 -9.5 -46 -21.5l-9 57q28 18 63 28q35 10 69 10q18 0 36 -4.5q18 -4.5 32 -15.5q14 -11 23 -29t9 -45z" />
<glyph unicode="&#179;" horiz-adv-x="377" d="M242 433q56 0 82.5 27.5q26.5 27.5 26.5 65.5q0 27 -16 40.5q-16 13.5 -64 13.5h-52l4 23l116 117l38 26l-48 -6h-121l13 60h243l-7 -33l-124 -124l-26 -18l-1 -2l22 3q38 0 64.5 -24.5q26.5 -24.5 26.5 -66.5q0 -32 -10 -61.5q-10 -29.5 -32 -52q-22 -22.5 -57.5 -35.5q-35.5 -13 -87.5 -13q-34 0 -57.5 6q-23.5 6 -40.5 13l26 60q14 -8 35 -13.5t47 -5.5z" />
<glyph unicode="&#180;" horiz-adv-x="238" d="M228 720h84l-5 -21l-123 -128l-44 0z" />
<glyph unicode="&#181;" horiz-adv-x="525" d="M209 500q-24 -117 -38 -184q-14 -67 -21 -103q-7 -36 -8.5 -49q-1.5 -13 -1.5 -21q0 -86 80 -86q53 0 96 33q43 33 69 86l69 324h75l-72 -337q-8 -41 -14 -82.5q-6 -41.5 -6 -80.5l-51 0l-12 74h-4q-27 -35 -71.5 -60.5q-44.5 -25.5 -101.5 -25.5q-45 0 -66.5 20.5q-21.5 20.5 -29.5 49.5l-5 0l-7 -125l-28 -133h-75l148 700z" />
<glyph unicode="&#182;" horiz-adv-x="495" d="M378 700h69v-830h-69zM222 310q-32 0 -59 16.5q-27 16.5 -46.5 44q-19.5 27.5 -30.5 63q-11 35.5 -11 72.5q0 37 11.5 72q11.5 35 33.5 62q22 27 54 43.5q32 16.5 72 16.5h45v-830l-69 0z" />
<glyph unicode="&#183;" horiz-adv-x="267" d="M98 296q0 27 16 42.5q16 15.5 42 15.5q26 0 42 -15.5q16 -15.5 16 -42.5q0 -26 -16 -42q-16 -16 -42 -16q-26 0 -42 16t-16 42z" />
<glyph unicode="&#184;" horiz-adv-x="363" d="M167 -43q27 -3 44.5 -20.5q17.5 -17.5 17.5 -49.5q0 -42 -31.5 -69q-31.5 -27 -94.5 -27q-12 0 -25.5 1.5q-13.5 1.5 -27.5 3.5l17 39q5 -1 10.5 -1q5.5 0 10.5 0q21 0 35 4q14 4 22 9.5q8 5.5 11 12.5q3 7 3 13q0 19 -21 28q-21 9 -56 9l65 90l53 0z" />
<glyph unicode="&#185;" horiz-adv-x="377" d="M149 441h101l54 254l14 36l-31 -28l-81 -45l-21 46l170 103h39l-78 -366h90l-13 -61l-257 0z" />
<glyph unicode="&#186;" horiz-adv-x="379" d="M60 490q0 58 17.5 100q17.5 42 44.5 69q27 27 60 40q33 13 65 13q57 0 86.5 -31q29.5 -31 29.5 -88q0 -54 -15 -95q-15 -41 -40.5 -69q-25.5 -28 -60 -42.5q-34.5 -14.5 -72.5 -14.5q-51 0 -83 31q-32 31 -32 87zt0 0zM129 498q0 -32 14.5 -50q14.5 -18 43.5 -18q21 0 40.5 11q19.5 11 34.5 31.5q15 20.5 23.5 50q8.5 29.5 8.5 66.5q0 35 -15.5 50q-15.5 15 -43.5 15q-21 0 -40.5 -12.5q-19.5 -12.5 -34 -33.5q-14.5 -21 -23 -49.5t-8.5 -60.5z" />
<glyph unicode="&#187;" horiz-adv-x="454" d="M280 268l-198 -228l-44 45l123 144l56 38l-35 43l-68 141l57 36zM454 268l-200 -230l-45 46l124 145l56 38l-35 44l-69 142l58 36z" />
<glyph unicode="&#188;" horiz-adv-x="797" d="M639 713l52 -36l-487 -689l-52 36zM744 96h-78l-21 -96h-64l21 96h-193l7 37l278 302h43l-59 -280h79zM641 283l17 49h-2l-31 -46l-96 -105l-38 -31l49 5h74zM256 595l15 36l-31 -28l-81 -45l-24 49l173 100h39l-91 -427l-66 0z" />
<glyph unicode="&#189;" horiz-adv-x="809" d="M639 713l52 -36l-487 -689l-52 36zM784 333q0 -32 -14.5 -64.5q-14.5 -32.5 -39 -65q-24.5 -32.5 -56.5 -63q-32 -30.5 -66 -58.5l-50 -31v-3l57 16h131l-14 -64h-275l7 33q18 13 43.5 32.5q25.5 19.5 53.5 43.5q28 24 55 51q27 27 49 54.5q22 27.5 35.5 53.5q13.5 26 13.5 49q0 46 -55 46q-26 0 -52 -9.5q-26 -9.5 -46 -21.5l-9 57q28 18 63 28q35 10 69 10q18 0 36 -4.5q18 -4.5 32 -15.5q14 -11 23 -29q9 -18 9 -45zt0 0zM256 595l15 36l-31 -28l-81 -45l-24 49l173 100h39l-91 -427l-66 0z" />
<glyph unicode="&#190;" horiz-adv-x="833" d="M675 713l52 -36l-487 -689l-52 36zM780 96h-78l-21 -96h-64l21 96h-193l7 37l278 302h43l-59 -280h79zM677 283l17 49h-2l-31 -46l-96 -105l-38 -31l49 5h74zM209 333q56 0 82.5 27.5q26.5 27.5 26.5 65.5q0 27 -16 40.5q-16 13.5 -64 13.5h-52l4 23l116 117l38 26l-48 -6h-121l13 60h243l-7 -33l-124 -124l-26 -18l-1 -2l22 3q38 0 64.5 -24.5q26.5 -24.5 26.5 -66.5q0 -32 -10 -61.5q-10 -29.5 -32 -52q-22 -22.5 -57.5 -35.5q-35.5 -13 -87.5 -13q-34 0 -57.5 6q-23.5 6 -40.5 13l26 60q14 -8 35 -13.5t47 -5.5z" />
<glyph unicode="&#191;" horiz-adv-x="413" d="M306 323q-5 -50 -25 -87.5q-20 -37.5 -47 -68q-27 -30.5 -56.5 -56.5q-29.5 -26 -54 -53q-24.5 -27 -41 -57q-16.5 -30 -16.5 -69q0 -39 20.5 -59.5q20.5 -20.5 71.5 -20.5q35 0 69 13.5q34 13.5 63 30.5l20 -58q-20 -12 -39 -21q-19 -9 -40 -15.5q-21 -6.5 -45.5 -10q-24.5 -3.5 -55.5 -3.5q-74 0 -109 34q-35 34 -35 88q0 54 17 93.5q17 39.5 43 70.5q26 31 57.5 57.5q31.5 26.5 60 54.5q28.5 28 50 60.5q21.5 32.5 28.5 76.5zM234 454q0 27 16 42.5q16 15.5 42 15.5q26 0 42 -15.5q16 -15.5 16 -42.5q0 -26 -16 -42q-16 -16 -42 -16q-26 0 -42 16t-16 42z" />
<glyph unicode="&#192;" horiz-adv-x="557" d="M404 194h-244l-108 -194h-85l404 711h37l101 -711h-77zM199 266h197l-29 213l-2 106h-1l-45 -108zM456 752h-63l-129 97l4 21l101 0z" />
<glyph unicode="&#193;" horiz-adv-x="557" d="M404 194h-244l-108 -194h-85l404 711h37l101 -711h-77zM199 266h197l-29 213l-2 106h-1l-45 -108zM467 870h116l-5 -21l-175 -97l-73 0z" />
<glyph unicode="&#194;" horiz-adv-x="557" d="M404 194h-244l-108 -194h-85l404 711h37l101 -711h-77zM199 266h197l-29 213l-2 106h-1l-45 -108zM392 870h48l99 -102l-4 -21h-68l-46 49l-10 35l-25 -34l-71 -50h-75l5 22z" />
<glyph unicode="&#195;" horiz-adv-x="557" d="M404 194h-244l-108 -194h-85l404 711h37l101 -711h-77zM199 266h197l-29 213l-2 106h-1l-45 -108zM256 785q35 32 62.5 43.5q27.5 11.5 50.5 11.5q18 0 33.5 -5q15.5 -5 30 -11.5q14.5 -6.5 28.5 -11.5q14 -5 29 -5q25 0 53 21l16 -43q-32 -26 -56.5 -35q-24.5 -9 -44.5 -9q-18 0 -33 5q-15 5 -29.5 11.5q-14.5 6.5 -28.5 11.5q-14 5 -29 5q-15 0 -31.5 -6.5q-16.5 -6.5 -36.5 -23.5z" />
<glyph unicode="&#196;" horiz-adv-x="557" d="M404 194h-244l-108 -194h-85l404 711h37l101 -711h-77zM199 266h197l-29 213l-2 106h-1l-45 -108zM263 794q0 20 14 33.5q14 13.5 37 13.5q23 0 36.5 -13.5q13.5 -13.5 13.5 -33.5q0 -20 -13.5 -33q-13.5 -13 -36.5 -13q-23 0 -37 13q-14 13 -14 33zt0 0zM446 794q0 20 13.5 33.5q13.5 13.5 36.5 13.5q23 0 37 -13.5q14 -13.5 14 -33.5q0 -20 -14 -33q-14 -13 -37 -13q-23 0 -36.5 13t-13.5 33z" />
<glyph unicode="&#197;" horiz-adv-x="557" d="M296 768q0 37 25 61q25 24 80 24q50 0 78 -21.5q28 -21.5 28 -63.5q0 -35 -24 -57.5q-24 -22.5 -72 -25.5l98 -685h-77l-28 194h-244l-108 -194h-85l392 690q-63 17 -63 78zt0 0zM199 265h197l-29 214l-2 106h-1l-45 -108zM357 768q0 -17 10.5 -28.5q10.5 -11.5 33.5 -11.5q22 0 33.5 11q11.5 11 11.5 29q0 19 -11 30.5q-11 11.5 -34 11.5q-22 0 -33 -11.5t-11 -30.5z" />
<glyph unicode="&#198;" horiz-adv-x="805" d="M459 599l-51 -101l-174 -229h157l71 330zM377 197h-199l-148 -197h-92l541 700h366l-15 -74h-283l-49 -229h259l-16 -74h-258l-54 -249h288l-15 -74h-287l-80 0z" />
<glyph unicode="&#199;" horiz-adv-x="544" d="M480 29q-32 -22 -68.5 -31q-36.5 -9 -83.5 -10l-24 -31q27 -3 44.5 -20.5q17.5 -17.5 17.5 -49.5q0 -42 -31.5 -69q-31.5 -27 -94.5 -27q-12 0 -25.5 1.5q-13.5 1.5 -27.5 3.5l17 39q5 -1 10.5 -1q5.5 0 10.5 0q21 0 35 4q14 4 22 9.5q8 5.5 11 12.5q3 7 3 13q0 19 -21 28q-21 9 -56 9l58 81q-49 7 -87 31.5q-38 24.5 -64.5 61.5q-26.5 37 -40.5 85.5q-14 48.5 -14 104.5q0 113 33 195.5q33 82.5 87 136.5q54 54 121.5 80q67.5 26 136.5 26q57 0 93 -8q36 -8 59 -19l-36 -73q-20 11 -52.5 18.5q-32.5 7.5 -74.5 7.5q-56 0 -107.5 -24.5q-51.5 -24.5 -90.5 -70.5q-39 -46 -62 -112q-23 -66 -23 -148q0 -48 12.5 -88.5q12.5 -40.5 36 -70q23.5 -29.5 58 -46q34.5 -16.5 78.5 -16.5q47 0 78 10.5q31 10.5 56 24.5z" />
<glyph unicode="&#200;" horiz-adv-x="510" d="M189 700h361l-15 -74h-283l-49 -229h259l-15 -74h-259l-53 -249h288l-16 -74h-288h-79zM422 752h-63l-129 97l4 21l101 0z" />
<glyph unicode="&#201;" horiz-adv-x="510" d="M189 700h361l-15 -74h-283l-49 -229h259l-15 -74h-259l-53 -249h288l-16 -74h-288h-79zM451 870h116l-5 -21l-175 -97l-73 0z" />
<glyph unicode="&#202;" horiz-adv-x="510" d="M189 700h361l-15 -74h-283l-49 -229h259l-15 -74h-259l-53 -249h288l-16 -74h-288h-79zM381 870h48l99 -102l-4 -21h-68l-46 49l-10 35l-25 -34l-71 -50h-75l5 22z" />
<glyph unicode="&#203;" horiz-adv-x="510" d="M189 700h361l-15 -74h-283l-49 -229h259l-15 -74h-259l-53 -249h288l-16 -74h-288h-79zM240 794q0 20 14 33.5q14 13.5 37 13.5q23 0 36.5 -13.5q13.5 -13.5 13.5 -33.5q0 -20 -13.5 -33q-13.5 -13 -36.5 -13q-23 0 -37 13q-14 13 -14 33zt0 0zM423 794q0 20 13.5 33.5q13.5 13.5 36.5 13.5q23 0 37 -13.5q14 -13.5 14 -33.5q0 -20 -14 -33q-14 -13 -37 -13q-23 0 -36.5 13t-13.5 33z" />
<glyph unicode="&#204;" horiz-adv-x="277" d="M210 700h80l-148 -700h-80zM316 752h-63l-129 97l4 21l101 0z" />
<glyph unicode="&#205;" horiz-adv-x="277" d="M210 700h80l-148 -700h-80zM325 870h116l-5 -21l-175 -97l-73 0z" />
<glyph unicode="&#206;" horiz-adv-x="277" d="M210 700h80l-148 -700h-80zM262 870h48l99 -102l-4 -21h-68l-46 49l-10 35l-25 -34l-71 -50h-75l5 22z" />
<glyph unicode="&#207;" horiz-adv-x="277" d="M210 700h80l-148 -700h-80zM123 794q0 20 14 33.5q14 13.5 37 13.5q23 0 36.5 -13.5q13.5 -13.5 13.5 -33.5q0 -20 -13.5 -33q-13.5 -13 -36.5 -13q-23 0 -37 13q-14 13 -14 33zt0 0zM306 794q0 20 13.5 33.5q13.5 13.5 36.5 13.5q23 0 37 -13.5q14 -13.5 14 -33.5q0 -20 -14 -33q-14 -13 -37 -13q-23 0 -36.5 13t-13.5 33z" />
<glyph unicode="&#208;" horiz-adv-x="626" d="M41 392h86l66 308q38 5 86 6.5q48 1.5 87 1.5q58 0 106 -15.5q48 -15.5 81.5 -47.5q33.5 -32 51.5 -81q18 -49 18 -115q0 -44 -8 -95.5q-8 -51.5 -26.5 -102q-18.5 -50.5 -49.5 -97.5q-31 -47 -77 -83.5q-46 -36.5 -107.5 -58q-61.5 -21.5 -142.5 -21.5q-15 0 -39.5 0.5q-24.5 0.5 -50.5 1.5q-68 4 -78 6l71 333h-87zM360 634q-12 0 -27 -0.5q-15 -0.5 -29 -1q-14 -0.5 -27 -1.5q-13 -1 -20 -2l-50 -237h137l-12 -60h-138l-55 -263q4 -1 16 -1.5q12 -0.5 25.5 -1q13.5 -0.5 26 -1q12.5 -0.5 17.5 -0.5q87 0 146.5 36q59.5 36 97 91q37.5 55 54.5 121q17 66 17 125q0 45 -10 81q-10 36 -31.5 61.5q-21.5 25.5 -55.5 39.5t-82 14z" />
<glyph unicode="&#209;" horiz-adv-x="642" d="M261 458l-34 103h-3l-12 -103l-97 -458h-75l151 711h40l218 -468l33 -98h4l9 98l98 457h75l-151 -711h-37zM289 785q35 32 62.5 43.5q27.5 11.5 50.5 11.5q18 0 33.5 -5q15.5 -5 30 -11.5q14.5 -6.5 28.5 -11.5q14 -5 29 -5q25 0 53 21l16 -43q-32 -26 -56.5 -35q-24.5 -9 -44.5 -9q-18 0 -33 5q-15 5 -29.5 11.5q-14.5 6.5 -28.5 11.5q-14 5 -29 5q-15 0 -31.5 -6.5q-16.5 -6.5 -36.5 -23.5z" />
<glyph unicode="&#210;" horiz-adv-x="651" d="M71 256q0 92 25 175q25 83 71.5 145.5q46.5 62.5 112 99q65.5 36.5 145.5 36.5q48 0 89 -14.5q41 -14.5 70.5 -46q29.5 -31.5 46 -81.5q16.5 -50 16.5 -122q0 -94 -25 -177.5q-25 -83.5 -70 -146.5q-45 -63 -107.5 -99.5q-62.5 -36.5 -137.5 -36.5q-118 0 -177 68.5q-59 68.5 -59 199.5zt0 0zM155 257q0 -94 39 -145.5q39 -51.5 115 -51.5q56 0 102.5 31q46.5 31 80.5 84q34 53 52.5 123q18.5 70 18.5 148q0 58 -13 96q-13 38 -34.5 59.5q-21.5 21.5 -49 30q-27.5 8.5 -55.5 8.5q-57 0 -104 -31.5q-47 -31.5 -80.5 -84.5q-33.5 -53 -52.5 -122.5q-19 -69.5 -19 -144.5zt0 0zM503 752h-63l-129 97l4 21l101 0z" />
<glyph unicode="&#211;" horiz-adv-x="651" d="M71 256q0 92 25 175q25 83 71.5 145.5q46.5 62.5 112 99q65.5 36.5 145.5 36.5q48 0 89 -14.5q41 -14.5 70.5 -46q29.5 -31.5 46 -81.5q16.5 -50 16.5 -122q0 -94 -25 -177.5q-25 -83.5 -70 -146.5q-45 -63 -107.5 -99.5q-62.5 -36.5 -137.5 -36.5q-118 0 -177 68.5q-59 68.5 -59 199.5zt0 0zM155 257q0 -94 39 -145.5q39 -51.5 115 -51.5q56 0 102.5 31q46.5 31 80.5 84q34 53 52.5 123q18.5 70 18.5 148q0 58 -13 96q-13 38 -34.5 59.5q-21.5 21.5 -49 30q-27.5 8.5 -55.5 8.5q-57 0 -104 -31.5q-47 -31.5 -80.5 -84.5q-33.5 -53 -52.5 -122.5q-19 -69.5 -19 -144.5zt0 0zM532 870h116l-5 -21l-175 -97l-73 0z" />
<glyph unicode="&#212;" horiz-adv-x="651" d="M71 256q0 92 25 175q25 83 71.5 145.5q46.5 62.5 112 99q65.5 36.5 145.5 36.5q48 0 89 -14.5q41 -14.5 70.5 -46q29.5 -31.5 46 -81.5q16.5 -50 16.5 -122q0 -94 -25 -177.5q-25 -83.5 -70 -146.5q-45 -63 -107.5 -99.5q-62.5 -36.5 -137.5 -36.5q-118 0 -177 68.5q-59 68.5 -59 199.5zt0 0zM155 257q0 -94 39 -145.5q39 -51.5 115 -51.5q56 0 102.5 31q46.5 31 80.5 84q34 53 52.5 123q18.5 70 18.5 148q0 58 -13 96q-13 38 -34.5 59.5q-21.5 21.5 -49 30q-27.5 8.5 -55.5 8.5q-57 0 -104 -31.5q-47 -31.5 -80.5 -84.5q-33.5 -53 -52.5 -122.5q-19 -69.5 -19 -144.5zt0 0zM447 870h48l99 -102l-4 -21h-68l-46 49l-10 35l-25 -34l-71 -50h-75l5 22z" />
<glyph unicode="&#213;" horiz-adv-x="651" d="M71 256q0 92 25 175q25 83 71.5 145.5q46.5 62.5 112 99q65.5 36.5 145.5 36.5q48 0 89 -14.5q41 -14.5 70.5 -46q29.5 -31.5 46 -81.5q16.5 -50 16.5 -122q0 -94 -25 -177.5q-25 -83.5 -70 -146.5q-45 -63 -107.5 -99.5q-62.5 -36.5 -137.5 -36.5q-118 0 -177 68.5q-59 68.5 -59 199.5zt0 0zM155 257q0 -94 39 -145.5q39 -51.5 115 -51.5q56 0 102.5 31q46.5 31 80.5 84q34 53 52.5 123q18.5 70 18.5 148q0 58 -13 96q-13 38 -34.5 59.5q-21.5 21.5 -49 30q-27.5 8.5 -55.5 8.5q-57 0 -104 -31.5q-47 -31.5 -80.5 -84.5q-33.5 -53 -52.5 -122.5q-19 -69.5 -19 -144.5zt0 0zM298 785q35 32 62.5 43.5q27.5 11.5 50.5 11.5q18 0 33.5 -5q15.5 -5 30 -11.5q14.5 -6.5 28.5 -11.5q14 -5 29 -5q25 0 53 21l16 -43q-32 -26 -56.5 -35q-24.5 -9 -44.5 -9q-18 0 -33 5q-15 5 -29.5 11.5q-14.5 6.5 -28.5 11.5q-14 5 -29 5q-15 0 -31.5 -6.5q-16.5 -6.5 -36.5 -23.5z" />
<glyph unicode="&#214;" horiz-adv-x="651" d="M71 256q0 92 25 175q25 83 71.5 145.5q46.5 62.5 112 99q65.5 36.5 145.5 36.5q48 0 89 -14.5q41 -14.5 70.5 -46q29.5 -31.5 46 -81.5q16.5 -50 16.5 -122q0 -94 -25 -177.5q-25 -83.5 -70 -146.5q-45 -63 -107.5 -99.5q-62.5 -36.5 -137.5 -36.5q-118 0 -177 68.5q-59 68.5 -59 199.5zt0 0zM155 257q0 -94 39 -145.5q39 -51.5 115 -51.5q56 0 102.5 31q46.5 31 80.5 84q34 53 52.5 123q18.5 70 18.5 148q0 58 -13 96q-13 38 -34.5 59.5q-21.5 21.5 -49 30q-27.5 8.5 -55.5 8.5q-57 0 -104 -31.5q-47 -31.5 -80.5 -84.5q-33.5 -53 -52.5 -122.5q-19 -69.5 -19 -144.5zt0 0zM307 794q0 20 14 33.5q14 13.5 37 13.5q23 0 36.5 -13.5q13.5 -13.5 13.5 -33.5q0 -20 -13.5 -33q-13.5 -13 -36.5 -13q-23 0 -37 13q-14 13 -14 33zt0 0zM490 794q0 20 13.5 33.5q13.5 13.5 36.5 13.5q23 0 37 -13.5q14 -13.5 14 -33.5q0 -20 -14 -33q-14 -13 -37 -13q-23 0 -36.5 13t-13.5 33z" />
<glyph unicode="&#215;" horiz-adv-x="480" d="M138 517l127 -127l127 127l51 -53l-126 -125l126 -127l-51 -52l-127 127l-126 -128l-52 51l127 129l-127 125z" />
<glyph unicode="&#216;" horiz-adv-x="651" d="M71 256q0 92 25 175q25 83 71.5 145.5q46.5 62.5 112 99q65.5 36.5 145.5 36.5q39 0 73.5 -9.5q34.5 -9.5 61.5 -29.5l29 39l49 -38l-35 -47q21 -31 32.5 -75q11.5 -44 11.5 -104q0 -94 -25 -177.5q-25 -83.5 -70 -146.5q-45 -63 -107.5 -99.5q-62.5 -36.5 -137.5 -36.5q-88 0 -145 40l-29 -39l-50 39l34 46q-46 65 -46 182zt0 0zM155 257q0 -63 18 -108l337 456q-21 19 -46.5 27q-25.5 8 -52.5 8q-57 0 -104 -31.5q-47 -31.5 -80.5 -84.5q-33.5 -53 -52.5 -122.5q-19 -69.5 -19 -144.5zt0 0zM563 446q0 32 -4 58q-4 26 -12 46l-337 -456q39 -34 99 -34q56 0 102.5 31q46.5 31 80.5 84q34 53 52.5 123t18.5 148z" />
<glyph unicode="&#217;" horiz-adv-x="618" d="M573 700h76l-98 -467q-14 -64 -35 -110q-21 -46 -52.5 -75q-31.5 -29 -75.5 -43q-44 -14 -102 -14q-55 0 -93 12.5q-38 12.5 -61.5 35q-23.5 22.5 -34 55q-10.5 32.5 -10.5 71.5q0 41 11 93l93 442h80l-93 -443q-11 -44 -11 -80q0 -63 33 -87.5q33 -24.5 98 -24.5q39 0 68.5 11q29.5 11 51 34q21.5 23 36 59q14.5 36 25.5 87zM499 752h-63l-129 97l4 21l101 0z" />
<glyph unicode="&#218;" horiz-adv-x="618" d="M573 700h76l-98 -467q-14 -64 -35 -110q-21 -46 -52.5 -75q-31.5 -29 -75.5 -43q-44 -14 -102 -14q-55 0 -93 12.5q-38 12.5 -61.5 35q-23.5 22.5 -34 55q-10.5 32.5 -10.5 71.5q0 41 11 93l93 442h80l-93 -443q-11 -44 -11 -80q0 -63 33 -87.5q33 -24.5 98 -24.5q39 0 68.5 11q29.5 11 51 34q21.5 23 36 59q14.5 36 25.5 87zM508 870h116l-5 -21l-175 -97l-73 0z" />
<glyph unicode="&#219;" horiz-adv-x="618" d="M573 700h76l-98 -467q-14 -64 -35 -110q-21 -46 -52.5 -75q-31.5 -29 -75.5 -43q-44 -14 -102 -14q-55 0 -93 12.5q-38 12.5 -61.5 35q-23.5 22.5 -34 55q-10.5 32.5 -10.5 71.5q0 41 11 93l93 442h80l-93 -443q-11 -44 -11 -80q0 -63 33 -87.5q33 -24.5 98 -24.5q39 0 68.5 11q29.5 11 51 34q21.5 23 36 59q14.5 36 25.5 87zM434 870h48l99 -102l-4 -21h-68l-46 49l-10 35l-25 -34l-71 -50h-75l5 22z" />
<glyph unicode="&#220;" horiz-adv-x="618" d="M573 700h76l-98 -467q-14 -64 -35 -110q-21 -46 -52.5 -75q-31.5 -29 -75.5 -43q-44 -14 -102 -14q-55 0 -93 12.5q-38 12.5 -61.5 35q-23.5 22.5 -34 55q-10.5 32.5 -10.5 71.5q0 41 11 93l93 442h80l-93 -443q-11 -44 -11 -80q0 -63 33 -87.5q33 -24.5 98 -24.5q39 0 68.5 11q29.5 11 51 34q21.5 23 36 59q14.5 36 25.5 87zM296 794q0 20 14 33.5q14 13.5 37 13.5q23 0 36.5 -13.5q13.5 -13.5 13.5 -33.5q0 -20 -13.5 -33q-13.5 -13 -36.5 -13q-23 0 -37 13q-14 13 -14 33zt0 0zM479 794q0 20 13.5 33.5q13.5 13.5 36.5 13.5q23 0 37 -13.5q14 -13.5 14 -33.5q0 -20 -14 -33q-14 -13 -37 -13q-23 0 -36.5 13t-13.5 33z" />
<glyph unicode="&#221;" horiz-adv-x="531" d="M241 278l-133 422h87l89 -306l3 -61h1l30 63l217 304h90l-304 -421l-59 -279h-80zM474 870h116l-5 -21l-175 -97l-73 0z" />
<glyph unicode="&#222;" horiz-adv-x="532" d="M189 700h79l-16 -75q40 3 81 3q46 0 85 -10q39 -10 68 -32q29 -22 46 -56.5q17 -34.5 17 -82.5q0 -76 -27 -127q-27 -51 -72 -82q-45 -31 -101 -44q-56 -13 -113 -13q-5 0 -15.5 0q-10.5 0 -22.5 0.5q-12 0.5 -23 1.5q-11 1 -16 2l-39 -185h-80zM316 555q-23 0 -44.5 -1.5q-21.5 -1.5 -35.5 -4.5l-61 -290q4 -2 13.5 -2.5q9.5 -0.5 20 -1.5q10.5 -1 20.5 -1q10 0 15 0q43 0 83 9q40 9 71 30.5q31 21.5 49 57q18 35.5 18 88.5q0 36 -12 58.5q-12 22.5 -32.5 35q-20.5 12.5 -47.5 17.5t-57 5z" />
<glyph unicode="&#223;" horiz-adv-x="559" d="M174 528q20 95 74.5 136.5q54.5 41.5 137.5 41.5q42 0 71 -10q29 -10 47 -26.5q18 -16.5 26.5 -38q8.5 -21.5 8.5 -43.5q0 -35 -12.5 -59q-12.5 -24 -31 -42q-18.5 -18 -40.5 -31.5q-22 -13.5 -40.5 -27q-18.5 -13.5 -31 -28.5q-12.5 -15 -12.5 -36q0 -19 11.5 -30.5q11.5 -11.5 29 -20.5q17.5 -9 38 -18.5q20.5 -9.5 38 -24.5q17.5 -15 29 -37.5q11.5 -22.5 11.5 -58.5q0 -39 -17.5 -73q-17.5 -34 -47 -59q-29.5 -25 -69 -39.5q-39.5 -14.5 -83.5 -14.5q-35 0 -65 6.5q-30 6.5 -54 21.5l36 67q40 -25 91 -25q21 0 44 7.5q23 7.5 41.5 21.5q18.5 14 31 34.5q12.5 20.5 12.5 47.5q0 23 -11.5 38q-11.5 15 -29 26q-17.5 11 -37.5 20.5q-20 9.5 -38 23q-18 13.5 -29.5 33.5q-11.5 20 -11.5 51q0 30 12.5 51q12.5 21 31.5 38q19 17 41 31q22 14 41 28q19 14 30.5 30q11.5 16 11.5 37q0 30 -22 45q-22 15 -62 15q-109 1 -132 -138l-96 -498q-9 -55 -21 -94q-12 -39 -30 -64.5q-18 -25.5 -44 -37.5q-26 -12 -63 -12q-30 0 -55.5 4.5q-25.5 4.5 -47.5 15.5v56q42 -7 58.5 -9q16.5 -2 40.5 -2q38 0 57 39q19 39 30 104l82 436h-86l13 64h86l7 28z" />
<glyph unicode="&#224;" horiz-adv-x="487" d="M414 197q-8 -37 -11 -75q-3 -38 -3 -71q0 -15 0 -28.5q0 -13.5 2 -24.5l-56 0l-14 87h-4q-12 -17 -29.5 -34.5q-17.5 -17.5 -38.5 -31.5q-21 -14 -45 -22.5q-24 -8.5 -51 -8.5q-119 0 -119 155q0 64 16.5 130q16.5 66 51 119q34.5 53 89 87q54.5 34 131.5 34q28 0 68.5 -6.5q40.5 -6.5 75.5 -17.5zM187 52q24 0 46 11.5q22 11.5 41.5 28.5q19.5 17 34.5 36.5q15 19.5 24 36.5l56 270q-30 14 -76 14q-46 0 -81 -27q-35 -27 -59 -70.5q-24 -43.5 -36 -98.5q-12 -55 -12 -110q0 -38 15 -64.5q15 -26.5 47 -26.5zt0 0zM359 571h-43l-81 128l4 21l91 0z" />
<glyph unicode="&#225;" horiz-adv-x="487" d="M414 197q-8 -37 -11 -75q-3 -38 -3 -71q0 -15 0 -28.5q0 -13.5 2 -24.5l-56 0l-14 87h-4q-12 -17 -29.5 -34.5q-17.5 -17.5 -38.5 -31.5q-21 -14 -45 -22.5q-24 -8.5 -51 -8.5q-119 0 -119 155q0 64 16.5 130q16.5 66 51 119q34.5 53 89 87q54.5 34 131.5 34q28 0 68.5 -6.5q40.5 -6.5 75.5 -17.5zM187 52q24 0 46 11.5q22 11.5 41.5 28.5q19.5 17 34.5 36.5q15 19.5 24 36.5l56 270q-30 14 -76 14q-46 0 -81 -27q-35 -27 -59 -70.5q-24 -43.5 -36 -98.5q-12 -55 -12 -110q0 -38 15 -64.5q15 -26.5 47 -26.5zt0 0zM392 720h84l-5 -21l-123 -128l-44 0z" />
<glyph unicode="&#226;" horiz-adv-x="487" d="M414 197q-8 -37 -11 -75q-3 -38 -3 -71q0 -15 0 -28.5q0 -13.5 2 -24.5l-56 0l-14 87h-4q-12 -17 -29.5 -34.5q-17.5 -17.5 -38.5 -31.5q-21 -14 -45 -22.5q-24 -8.5 -51 -8.5q-119 0 -119 155q0 64 16.5 130q16.5 66 51 119q34.5 53 89 87q54.5 34 131.5 34q28 0 68.5 -6.5q40.5 -6.5 75.5 -17.5zM187 52q24 0 46 11.5q22 11.5 41.5 28.5q19.5 17 34.5 36.5q15 19.5 24 36.5l56 270q-30 14 -76 14q-46 0 -81 -27q-35 -27 -59 -70.5q-24 -43.5 -36 -98.5q-12 -55 -12 -110q0 -38 15 -64.5q15 -26.5 47 -26.5zt0 0zM358 732h30l66 -182h-63l-24 66l-6 58l-34 -58l-57 -66l-68 0z" />
<glyph unicode="&#227;" horiz-adv-x="487" d="M414 197q-8 -37 -11 -75q-3 -38 -3 -71q0 -15 0 -28.5q0 -13.5 2 -24.5l-56 0l-14 87h-4q-12 -17 -29.5 -34.5q-17.5 -17.5 -38.5 -31.5q-21 -14 -45 -22.5q-24 -8.5 -51 -8.5q-119 0 -119 155q0 64 16.5 130q16.5 66 51 119q34.5 53 89 87q54.5 34 131.5 34q28 0 68.5 -6.5q40.5 -6.5 75.5 -17.5zM187 52q24 0 46 11.5q22 11.5 41.5 28.5q19.5 17 34.5 36.5q15 19.5 24 36.5l56 270q-30 14 -76 14q-46 0 -81 -27q-35 -27 -59 -70.5q-24 -43.5 -36 -98.5q-12 -55 -12 -110q0 -38 15 -64.5q15 -26.5 47 -26.5zt0 0zM217 656q32 33 55.5 45.5q23.5 12.5 41.5 12.5q15 0 27 -6.5q12 -6.5 23.5 -14q11.5 -7.5 23 -13.5q11.5 -6 25.5 -6q23 0 54 24l15 -43q-29 -29 -50 -40q-21 -11 -38 -11q-15 0 -27 6q-12 6 -23.5 13.5q-11.5 7.5 -23.5 13.5q-12 6 -27 6q-13 0 -28 -6.5q-15 -6.5 -35 -22.5z" />
<glyph unicode="&#228;" horiz-adv-x="487" d="M414 197q-8 -37 -11 -75q-3 -38 -3 -71q0 -15 0 -28.5q0 -13.5 2 -24.5l-56 0l-14 87h-4q-12 -17 -29.5 -34.5q-17.5 -17.5 -38.5 -31.5q-21 -14 -45 -22.5q-24 -8.5 -51 -8.5q-119 0 -119 155q0 64 16.5 130q16.5 66 51 119q34.5 53 89 87q54.5 34 131.5 34q28 0 68.5 -6.5q40.5 -6.5 75.5 -17.5zM187 52q24 0 46 11.5q22 11.5 41.5 28.5q19.5 17 34.5 36.5q15 19.5 24 36.5l56 270q-30 14 -76 14q-46 0 -81 -27q-35 -27 -59 -70.5q-24 -43.5 -36 -98.5q-12 -55 -12 -110q0 -38 15 -64.5q15 -26.5 47 -26.5zt0 0zM185 653q0 22 12.5 36.5q12.5 14.5 33.5 14.5q21 0 34 -14.5q13 -14.5 13 -36.5q0 -20 -13 -34.5q-13 -14.5 -34 -14.5q-21 0 -33.5 14.5q-12.5 14.5 -12.5 34.5zt0 0zM368 654q0 21 12.5 35.5q12.5 14.5 33.5 14.5q22 0 34.5 -14.5q12.5 -14.5 12.5 -35.5q0 -21 -12.5 -35.5q-12.5 -14.5 -34.5 -14.5q-21 0 -33.5 14.5t-12.5 35.5z" />
<glyph unicode="&#229;" horiz-adv-x="487" d="M414 197q-8 -37 -11 -75q-3 -38 -3 -71q0 -15 0 -28.5q0 -13.5 2 -24.5l-56 0l-14 87h-4q-12 -17 -29.5 -34.5q-17.5 -17.5 -38.5 -31.5q-21 -14 -45 -22.5q-24 -8.5 -51 -8.5q-119 0 -119 155q0 64 16.5 130q16.5 66 51 119q34.5 53 89 87q54.5 34 131.5 34q28 0 68.5 -6.5q40.5 -6.5 75.5 -17.5zM187 52q24 0 46 11.5q22 11.5 41.5 28.5q19.5 17 34.5 36.5q15 19.5 24 36.5l56 270q-30 14 -76 14q-46 0 -81 -27q-35 -27 -59 -70.5q-24 -43.5 -36 -98.5q-12 -55 -12 -110q0 -38 15 -64.5q15 -26.5 47 -26.5zt0 0zM251 643q0 42 26.5 66.5q26.5 24.5 70.5 24.5q42 0 70 -22q28 -22 28 -69q0 -39 -28 -64.5q-28 -25.5 -70 -25.5q-42 0 -69.5 23.5q-27.5 23.5 -27.5 66.5zt0 0zM305 643q0 -20 13.5 -31q13.5 -11 29.5 -11q19 0 31.5 10q12.5 10 12.5 32q0 22 -13.5 32.5q-13.5 10.5 -30.5 10.5q-17 0 -30 -10t-13 -33z" />
<glyph unicode="&#230;" horiz-adv-x="754" d="M176 56q27 0 51.5 13q24.5 13 44.5 30.5q20 17.5 34.5 35q14.5 17.5 21.5 28.5l8 68q-11 1 -23 1.5q-12 0.5 -23 0.5q-38 0 -71.5 -6q-33.5 -6 -58 -19q-24.5 -13 -38.5 -32.5q-14 -19.5 -14 -47.5q0 -38 17.5 -55q17.5 -17 50.5 -17zt0 0zM332 87q-32 -39 -79.5 -67q-47.5 -28 -104.5 -28q-31 0 -53.5 10q-22.5 10 -37.5 26.5q-15 16.5 -22 38q-7 21.5 -7 44.5q0 51 22 85.5q22 34.5 59.5 55q37.5 20.5 87.5 29.5q50 9 105 9q11 0 22.5 0q11.5 0 22.5 -1q20 65 20 97q0 32 -19 45q-19 13 -63 13q-16 0 -35.5 -2.5q-19.5 -2.5 -39.5 -7.5q-20 -5 -38.5 -11.5q-18.5 -6.5 -33.5 -13.5l-12 60q42 23 91.5 31q49.5 8 100.5 8q48 0 78.5 -17q30.5 -17 37.5 -49q32 37 77.5 53.5q45.5 16.5 87.5 16.5q74 0 110 -32.5q36 -32.5 36 -80.5q0 -53 -24.5 -85q-24.5 -32 -68.5 -50q-44 -18 -106 -24.5q-62 -6.5 -136 -7.5q-3 -17 -5 -32q-2 -15 -2 -29q0 -55 28 -87q28 -32 95 -32q32 0 66.5 12.5q34.5 12.5 55.5 27.5l17 -54q-34 -24 -80.5 -37q-46.5 -13 -94.5 -13q-58 0 -97.5 26.5q-39.5 26.5 -53.5 72.5zM587 448q-61 0 -102 -40q-41 -40 -63 -115q49 0 93.5 2.5q44.5 2.5 78.5 12q34 9.5 54 28.5q20 19 20 52q0 25 -16.5 42.5t-64.5 17.5z" />
<glyph unicode="&#231;" horiz-adv-x="420" d="M365 43q-26 -22 -61.5 -36.5q-35.5 -14.5 -67.5 -18.5l-25 -31q27 -3 44.5 -20.5q17.5 -17.5 17.5 -49.5q0 -42 -31.5 -69q-31.5 -27 -94.5 -27q-12 0 -25.5 1.5q-13.5 1.5 -27.5 3.5l17 39q5 -1 10.5 -1q5.5 0 10.5 0q21 0 35 4q14 4 22 9.5q8 5.5 11 12.5q3 7 3 13q0 19 -21 28q-21 9 -56 9l57 78q-40 4 -66 21q-26 17 -41 40.5q-15 23.5 -20.5 49.5q-5.5 26 -5.5 49q0 85 23 152.5q23 67.5 61.5 114.5q38.5 47 88.5 72q50 25 103 25q38 0 62.5 -7q24.5 -7 44.5 -16l-28 -62q-17 10 -42 15.5q-25 5.5 -54 5.5q-34 0 -66.5 -23q-32.5 -23 -57.5 -60.5q-25 -37.5 -40 -86q-15 -48.5 -15 -99.5q0 -65 27 -96q27 -31 73 -31q30 0 63 13.5q33 13.5 53 27.5z" />
<glyph unicode="&#232;" horiz-adv-x="463" d="M389 49q-35 -30 -82.5 -45.5q-47.5 -15.5 -95.5 -15.5q-80 0 -120.5 46q-40.5 46 -40.5 128q0 82 23 147q23 65 60.5 110q37.5 45 85 69q47.5 24 97.5 24q36 0 62.5 -10q26.5 -10 43.5 -26.5q17 -16.5 25 -38q8 -21.5 8 -45.5q0 -71 -69 -111.5q-69 -40.5 -201 -40.5q-12 0 -25 0.5q-13 0.5 -27 1.5q-4 -19 -6 -36q-2 -17 -2 -30q0 -55 25 -89.5q25 -34.5 78 -34.5q44 0 80.5 14.5q36.5 14.5 56.5 30.5zM304 448q-55 0 -95.5 -37.5q-40.5 -37.5 -61.5 -112.5q38 0 79 2q41 2 74.5 10.5q33.5 8.5 55.5 27q22 18.5 22 51.5q0 10 -3.5 20.5q-3.5 10.5 -11.5 19q-8 8.5 -22.5 14q-14.5 5.5 -36.5 5.5zt0 0zM343 571h-43l-81 128l4 21l91 0z" />
<glyph unicode="&#233;" horiz-adv-x="463" d="M389 49q-35 -30 -82.5 -45.5q-47.5 -15.5 -95.5 -15.5q-80 0 -120.5 46q-40.5 46 -40.5 128q0 82 23 147q23 65 60.5 110q37.5 45 85 69q47.5 24 97.5 24q36 0 62.5 -10q26.5 -10 43.5 -26.5q17 -16.5 25 -38q8 -21.5 8 -45.5q0 -71 -69 -111.5q-69 -40.5 -201 -40.5q-12 0 -25 0.5q-13 0.5 -27 1.5q-4 -19 -6 -36q-2 -17 -2 -30q0 -55 25 -89.5q25 -34.5 78 -34.5q44 0 80.5 14.5q36.5 14.5 56.5 30.5zM304 448q-55 0 -95.5 -37.5q-40.5 -37.5 -61.5 -112.5q38 0 79 2q41 2 74.5 10.5q33.5 8.5 55.5 27q22 18.5 22 51.5q0 10 -3.5 20.5q-3.5 10.5 -11.5 19q-8 8.5 -22.5 14q-14.5 5.5 -36.5 5.5zt0 0zM374 720h84l-5 -21l-123 -128l-44 0z" />
<glyph unicode="&#234;" horiz-adv-x="463" d="M389 49q-35 -30 -82.5 -45.5q-47.5 -15.5 -95.5 -15.5q-80 0 -120.5 46q-40.5 46 -40.5 128q0 82 23 147q23 65 60.5 110q37.5 45 85 69q47.5 24 97.5 24q36 0 62.5 -10q26.5 -10 43.5 -26.5q17 -16.5 25 -38q8 -21.5 8 -45.5q0 -71 -69 -111.5q-69 -40.5 -201 -40.5q-12 0 -25 0.5q-13 0.5 -27 1.5q-4 -19 -6 -36q-2 -17 -2 -30q0 -55 25 -89.5q25 -34.5 78 -34.5q44 0 80.5 14.5q36.5 14.5 56.5 30.5zM304 448q-55 0 -95.5 -37.5q-40.5 -37.5 -61.5 -112.5q38 0 79 2q41 2 74.5 10.5q33.5 8.5 55.5 27q22 18.5 22 51.5q0 10 -3.5 20.5q-3.5 10.5 -11.5 19q-8 8.5 -22.5 14q-14.5 5.5 -36.5 5.5zt0 0zM342 732h30l66 -182h-63l-24 66l-6 58l-34 -58l-57 -66l-68 0z" />
<glyph unicode="&#235;" horiz-adv-x="463" d="M389 49q-35 -30 -82.5 -45.5q-47.5 -15.5 -95.5 -15.5q-80 0 -120.5 46q-40.5 46 -40.5 128q0 82 23 147q23 65 60.5 110q37.5 45 85 69q47.5 24 97.5 24q36 0 62.5 -10q26.5 -10 43.5 -26.5q17 -16.5 25 -38q8 -21.5 8 -45.5q0 -71 -69 -111.5q-69 -40.5 -201 -40.5q-12 0 -25 0.5q-13 0.5 -27 1.5q-4 -19 -6 -36q-2 -17 -2 -30q0 -55 25 -89.5q25 -34.5 78 -34.5q44 0 80.5 14.5q36.5 14.5 56.5 30.5zM304 448q-55 0 -95.5 -37.5q-40.5 -37.5 -61.5 -112.5q38 0 79 2q41 2 74.5 10.5q33.5 8.5 55.5 27q22 18.5 22 51.5q0 10 -3.5 20.5q-3.5 10.5 -11.5 19q-8 8.5 -22.5 14q-14.5 5.5 -36.5 5.5zt0 0zM195 653q0 22 12.5 36.5q12.5 14.5 33.5 14.5q21 0 34 -14.5q13 -14.5 13 -36.5q0 -20 -13 -34.5q-13 -14.5 -34 -14.5q-21 0 -33.5 14.5q-12.5 14.5 -12.5 34.5zt0 0zM378 654q0 21 12.5 35.5q12.5 14.5 33.5 14.5q22 0 34.5 -14.5q12.5 -14.5 12.5 -35.5q0 -21 -12.5 -35.5q-12.5 -14.5 -34.5 -14.5q-21 0 -33.5 14.5t-12.5 35.5z" />
<glyph unicode="&#236;" horiz-adv-x="259" d="M160 500h75l-106 -500h-75zM247 571h-43l-81 128l4 21l91 0z" />
<glyph unicode="&#237;" horiz-adv-x="259" d="M160 500h75l-106 -500h-75zM264 720h84l-5 -21l-123 -128l-44 0z" />
<glyph unicode="&#238;" horiz-adv-x="259" d="M160 500h75l-106 -500h-75zM233 732h30l66 -182h-63l-24 66l-6 58l-34 -58l-57 -66l-68 0z" />
<glyph unicode="&#239;" horiz-adv-x="259" d="M160 500h75l-106 -500h-75zM89 653q0 22 12.5 36.5q12.5 14.5 33.5 14.5q21 0 34 -14.5q13 -14.5 13 -36.5q0 -20 -13 -34.5q-13 -14.5 -34 -14.5q-21 0 -33.5 14.5q-12.5 14.5 -12.5 34.5zt0 0zM272 654q0 21 12.5 35.5q12.5 14.5 33.5 14.5q22 0 34.5 -14.5q12.5 -14.5 12.5 -35.5q0 -21 -12.5 -35.5q-12.5 -14.5 -34.5 -14.5q-21 0 -33.5 14.5t-12.5 35.5z" />
<glyph unicode="&#240;" horiz-adv-x="496" d="M276 595l78 34q-16 20 -34.5 33.5q-18.5 13.5 -38.5 22.5l59 27q46 -19 76 -56l76 33l20 -41l-71 -31q16 -32 25 -72q9 -40 9 -89q0 -126 -23.5 -214.5q-23.5 -88.5 -61.5 -145q-38 -56.5 -86 -82.5q-48 -26 -97 -26q-39 0 -68.5 13q-29.5 13 -49 35.5q-19.5 22.5 -29 53.5q-9.5 31 -9.5 66q0 69 18.5 132.5q18.5 63.5 52.5 113q34 49.5 80 79q46 29.5 102 29.5q43 0 64 -11.5q21 -11.5 36 -28.5q1 70 -25 120l-81 -35zM130 164q0 -54 23 -83q23 -29 58 -29q53 0 88.5 35.5q35.5 35.5 57 86.5q21.5 51 30 108q8.5 57 8.5 100q-8 29 -33.5 46q-25.5 17 -60.5 17q-38 0 -69.5 -26q-31.5 -26 -54 -67q-22.5 -41 -35 -90.5t-12.5 -97.5z" />
<glyph unicode="&#241;" horiz-adv-x="522" d="M320 0l67 316q4 18 7 35.5q3 17.5 3 31.5q0 29 -13.5 47q-13.5 18 -50.5 18q-26 0 -51 -12q-25 -12 -47 -30.5q-22 -18.5 -39.5 -41q-17.5 -22.5 -29.5 -44.5l-66 -320h-75l106 500h52l-4 -86h4q13 16 31 33.5q18 17.5 40.5 31.5q22.5 14 50.5 23.5q28 9.5 62 9.5q50 0 79 -24q29 -24 29 -84q0 -30 -9 -72l-71 -332zM220 656q32 33 55.5 45.5q23.5 12.5 41.5 12.5q15 0 27 -6.5q12 -6.5 23.5 -14q11.5 -7.5 23 -13.5q11.5 -6 25.5 -6q23 0 54 24l15 -43q-29 -29 -50 -40q-21 -11 -38 -11q-15 0 -27 6q-12 6 -23.5 13.5q-11.5 7.5 -23.5 13.5q-12 6 -27 6q-13 0 -28 -6.5q-15 -6.5 -35 -22.5z" />
<glyph unicode="&#242;" horiz-adv-x="498" d="M50 156q0 79 20.5 144.5q20.5 65.5 56.5 112.5q36 47 83.5 73q47.5 26 101.5 26q42 0 71.5 -13.5q29.5 -13.5 48 -37q18.5 -23.5 26.5 -54q8 -30.5 8 -63.5q0 -75 -19.5 -140q-19.5 -65 -54 -113q-34.5 -48 -80.5 -75.5q-46 -27.5 -100 -27.5q-45 0 -75.5 14.5q-30.5 14.5 -50 38.5q-19.5 24 -28 54q-8.5 30 -8.5 61zt0 0zM130 174q0 -59 22 -90.5q22 -31.5 70 -31.5q33 0 62.5 23.5q29.5 23.5 52 63.5q22.5 40 36 91.5q13.5 51.5 13.5 107.5q0 51 -18.5 80.5q-18.5 29.5 -70.5 29.5q-33 0 -63 -22.5q-30 -22.5 -53.5 -60.5q-23.5 -38 -37 -87.5q-13.5 -49.5 -13.5 -103.5zt0 0zM355 571h-43l-81 128l4 21l91 0z" />
<glyph unicode="&#243;" horiz-adv-x="498" d="M50 156q0 79 20.5 144.5q20.5 65.5 56.5 112.5q36 47 83.5 73q47.5 26 101.5 26q42 0 71.5 -13.5q29.5 -13.5 48 -37q18.5 -23.5 26.5 -54q8 -30.5 8 -63.5q0 -75 -19.5 -140q-19.5 -65 -54 -113q-34.5 -48 -80.5 -75.5q-46 -27.5 -100 -27.5q-45 0 -75.5 14.5q-30.5 14.5 -50 38.5q-19.5 24 -28 54q-8.5 30 -8.5 61zt0 0zM130 174q0 -59 22 -90.5q22 -31.5 70 -31.5q33 0 62.5 23.5q29.5 23.5 52 63.5q22.5 40 36 91.5q13.5 51.5 13.5 107.5q0 51 -18.5 80.5q-18.5 29.5 -70.5 29.5q-33 0 -63 -22.5q-30 -22.5 -53.5 -60.5q-23.5 -38 -37 -87.5q-13.5 -49.5 -13.5 -103.5zt0 0zM376 720h84l-5 -21l-123 -128l-44 0z" />
<glyph unicode="&#244;" horiz-adv-x="498" d="M50 156q0 79 20.5 144.5q20.5 65.5 56.5 112.5q36 47 83.5 73q47.5 26 101.5 26q42 0 71.5 -13.5q29.5 -13.5 48 -37q18.5 -23.5 26.5 -54q8 -30.5 8 -63.5q0 -75 -19.5 -140q-19.5 -65 -54 -113q-34.5 -48 -80.5 -75.5q-46 -27.5 -100 -27.5q-45 0 -75.5 14.5q-30.5 14.5 -50 38.5q-19.5 24 -28 54q-8.5 30 -8.5 61zt0 0zM130 174q0 -59 22 -90.5q22 -31.5 70 -31.5q33 0 62.5 23.5q29.5 23.5 52 63.5q22.5 40 36 91.5q13.5 51.5 13.5 107.5q0 51 -18.5 80.5q-18.5 29.5 -70.5 29.5q-33 0 -63 -22.5q-30 -22.5 -53.5 -60.5q-23.5 -38 -37 -87.5q-13.5 -49.5 -13.5 -103.5zt0 0zM342 732h30l66 -182h-63l-24 66l-6 58l-34 -58l-57 -66l-68 0z" />
<glyph unicode="&#245;" horiz-adv-x="498" d="M50 156q0 79 20.5 144.5q20.5 65.5 56.5 112.5q36 47 83.5 73q47.5 26 101.5 26q42 0 71.5 -13.5q29.5 -13.5 48 -37q18.5 -23.5 26.5 -54q8 -30.5 8 -63.5q0 -75 -19.5 -140q-19.5 -65 -54 -113q-34.5 -48 -80.5 -75.5q-46 -27.5 -100 -27.5q-45 0 -75.5 14.5q-30.5 14.5 -50 38.5q-19.5 24 -28 54q-8.5 30 -8.5 61zt0 0zM130 174q0 -59 22 -90.5q22 -31.5 70 -31.5q33 0 62.5 23.5q29.5 23.5 52 63.5q22.5 40 36 91.5q13.5 51.5 13.5 107.5q0 51 -18.5 80.5q-18.5 29.5 -70.5 29.5q-33 0 -63 -22.5q-30 -22.5 -53.5 -60.5q-23.5 -38 -37 -87.5q-13.5 -49.5 -13.5 -103.5zt0 0zM195 656q32 33 55.5 45.5q23.5 12.5 41.5 12.5q15 0 27 -6.5q12 -6.5 23.5 -14q11.5 -7.5 23 -13.5q11.5 -6 25.5 -6q23 0 54 24l15 -43q-29 -29 -50 -40q-21 -11 -38 -11q-15 0 -27 6q-12 6 -23.5 13.5q-11.5 7.5 -23.5 13.5q-12 6 -27 6q-13 0 -28 -6.5q-15 -6.5 -35 -22.5z" />
<glyph unicode="&#246;" horiz-adv-x="498" d="M50 156q0 79 20.5 144.5q20.5 65.5 56.5 112.5q36 47 83.5 73q47.5 26 101.5 26q42 0 71.5 -13.5q29.5 -13.5 48 -37q18.5 -23.5 26.5 -54q8 -30.5 8 -63.5q0 -75 -19.5 -140q-19.5 -65 -54 -113q-34.5 -48 -80.5 -75.5q-46 -27.5 -100 -27.5q-45 0 -75.5 14.5q-30.5 14.5 -50 38.5q-19.5 24 -28 54q-8.5 30 -8.5 61zt0 0zM130 174q0 -59 22 -90.5q22 -31.5 70 -31.5q33 0 62.5 23.5q29.5 23.5 52 63.5q22.5 40 36 91.5q13.5 51.5 13.5 107.5q0 51 -18.5 80.5q-18.5 29.5 -70.5 29.5q-33 0 -63 -22.5q-30 -22.5 -53.5 -60.5q-23.5 -38 -37 -87.5q-13.5 -49.5 -13.5 -103.5zt0 0zM189 653q0 22 12.5 36.5q12.5 14.5 33.5 14.5q21 0 34 -14.5q13 -14.5 13 -36.5q0 -20 -13 -34.5q-13 -14.5 -34 -14.5q-21 0 -33.5 14.5q-12.5 14.5 -12.5 34.5zt0 0zM372 654q0 21 12.5 35.5q12.5 14.5 33.5 14.5q22 0 34.5 -14.5q12.5 -14.5 12.5 -35.5q0 -21 -12.5 -35.5q-12.5 -14.5 -34.5 -14.5q-21 0 -33.5 14.5t-12.5 35.5z" />
<glyph unicode="&#247;" horiz-adv-x="480" d="M55 374h424v-72h-424zM210 525q0 27 16 42.5q16 15.5 42 15.5q26 0 42 -15.5q16 -15.5 16 -42.5q0 -26 -16 -42q-16 -16 -42 -16q-26 0 -42 16q-16 16 -16 42zt0 0zM210 151q0 27 16 42.5q16 15.5 42 15.5q26 0 42 -15.5q16 -15.5 16 -42.5q0 -26 -16 -42q-16 -16 -42 -16q-26 0 -42 16t-16 42z" />
<glyph unicode="&#248;" horiz-adv-x="498" d="M50 156q0 79 20.5 144.5q20.5 65.5 56.5 112.5q36 47 83.5 73q47.5 26 101.5 26q35 0 61 -9.5q26 -9.5 45 -26.5l36 39l40 -37l-44 -50q8 -19 12 -40q4 -21 4 -44q0 -75 -19.5 -140q-19.5 -65 -54 -113q-34.5 -48 -80.5 -75.5q-46 -27.5 -100 -27.5q-40 0 -68.5 11.5q-28.5 11.5 -48.5 31.5l-40 -45l-42 38l50 56q-13 35 -13 76zt0 0zM386 338q0 5 0 10q0 5 -1 10l-239 -266q23 -40 76 -40q33 0 62.5 23.5q29.5 23.5 52 63.5q22.5 40 36 91.5q13.5 51.5 13.5 107.5zt0 0zM130 174q0 -6 0 -12q0 -6 1 -12l238 266q-21 32 -72 32q-33 0 -63 -22.5q-30 -22.5 -53.5 -60.5q-23.5 -38 -37 -87.5t-13.5 -103.5z" />
<glyph unicode="&#249;" horiz-adv-x="511" d="M213 500l-70 -333q-6 -27 -6 -50q0 -28 11 -46.5q11 -18.5 40 -18.5q24 0 48.5 12q24.5 12 47 31q22.5 19 41 42q18.5 23 30.5 45l67 318h75l-63 -297q-4 -17 -8 -41.5q-4 -24.5 -7.5 -51.5q-3.5 -27 -5.5 -52.5q-2 -25.5 -2 -44.5v-13h-59v95h-4q-15 -20 -34.5 -39q-19.5 -19 -43 -34q-23.5 -15 -50.5 -24.5q-27 -9.5 -57 -9.5q-22 0 -40.5 5q-18.5 5 -32.5 17.5q-14 12.5 -22 33q-8 20.5 -8 52.5q0 35 10 79l68 325zM366 571h-43l-81 128l4 21l91 0z" />
<glyph unicode="&#250;" horiz-adv-x="511" d="M213 500l-70 -333q-6 -27 -6 -50q0 -28 11 -46.5q11 -18.5 40 -18.5q24 0 48.5 12q24.5 12 47 31q22.5 19 41 42q18.5 23 30.5 45l67 318h75l-63 -297q-4 -17 -8 -41.5q-4 -24.5 -7.5 -51.5q-3.5 -27 -5.5 -52.5q-2 -25.5 -2 -44.5v-13h-59v95h-4q-15 -20 -34.5 -39q-19.5 -19 -43 -34q-23.5 -15 -50.5 -24.5q-27 -9.5 -57 -9.5q-22 0 -40.5 5q-18.5 5 -32.5 17.5q-14 12.5 -22 33q-8 20.5 -8 52.5q0 35 10 79l68 325zM377 720h84l-5 -21l-123 -128l-44 0z" />
<glyph unicode="&#251;" horiz-adv-x="511" d="M213 500l-70 -333q-6 -27 -6 -50q0 -28 11 -46.5q11 -18.5 40 -18.5q24 0 48.5 12q24.5 12 47 31q22.5 19 41 42q18.5 23 30.5 45l67 318h75l-63 -297q-4 -17 -8 -41.5q-4 -24.5 -7.5 -51.5q-3.5 -27 -5.5 -52.5q-2 -25.5 -2 -44.5v-13h-59v95h-4q-15 -20 -34.5 -39q-19.5 -19 -43 -34q-23.5 -15 -50.5 -24.5q-27 -9.5 -57 -9.5q-22 0 -40.5 5q-18.5 5 -32.5 17.5q-14 12.5 -22 33q-8 20.5 -8 52.5q0 35 10 79l68 325zM355 732h30l66 -182h-63l-24 66l-6 58l-34 -58l-57 -66l-68 0z" />
<glyph unicode="&#252;" horiz-adv-x="511" d="M213 500l-70 -333q-6 -27 -6 -50q0 -28 11 -46.5q11 -18.5 40 -18.5q24 0 48.5 12q24.5 12 47 31q22.5 19 41 42q18.5 23 30.5 45l67 318h75l-63 -297q-4 -17 -8 -41.5q-4 -24.5 -7.5 -51.5q-3.5 -27 -5.5 -52.5q-2 -25.5 -2 -44.5v-13h-59v95h-4q-15 -20 -34.5 -39q-19.5 -19 -43 -34q-23.5 -15 -50.5 -24.5q-27 -9.5 -57 -9.5q-22 0 -40.5 5q-18.5 5 -32.5 17.5q-14 12.5 -22 33q-8 20.5 -8 52.5q0 35 10 79l68 325zM210 653q0 22 12.5 36.5q12.5 14.5 33.5 14.5q21 0 34 -14.5q13 -14.5 13 -36.5q0 -20 -13 -34.5q-13 -14.5 -34 -14.5q-21 0 -33.5 14.5q-12.5 14.5 -12.5 34.5zt0 0zM393 654q0 21 12.5 35.5q12.5 14.5 33.5 14.5q22 0 34.5 -14.5q12.5 -14.5 12.5 -35.5q0 -21 -12.5 -35.5q-12.5 -14.5 -34.5 -14.5q-21 0 -33.5 14.5t-12.5 35.5z" />
<glyph unicode="&#253;" horiz-adv-x="439" d="M194 176l5 -96h5l38 97l166 323h80l-236 -446q-26 -49 -51.5 -95.5q-25.5 -46.5 -52.5 -83q-27 -36.5 -56 -58.5q-29 -22 -60 -22q-17 0 -29.5 2q-12.5 2 -22.5 7l24 69q11 -4 24 -4q29 0 58 30q29 30 65 101l-86 500h80zM337 720h84l-5 -21l-123 -128l-44 0z" />
<glyph unicode="&#254;" horiz-adv-x="508" d="M188 700h75l-62 -274h4q14 17 30 32.5q16 15.5 35 27.5q19 12 42.5 19q23.5 7 52.5 7q24 0 45 -7.5q21 -7.5 37 -25q16 -17.5 25.5 -46.5q9.5 -29 9.5 -71q0 -88 -24 -157.5q-24 -69.5 -63 -117.5q-39 -48 -87.5 -73.5q-48.5 -25.5 -96.5 -25.5q-35 0 -61.5 6.5q-26.5 6.5 -35.5 13.5l-44 -208h-75zM337 448q-27 0 -51.5 -14q-24.5 -14 -45 -34.5q-20.5 -20.5 -36.5 -44q-16 -23.5 -26 -43.5l-49 -237q17 -13 35 -18q18 -5 39 -5q39 0 74.5 21.5q35.5 21.5 63.5 61.5q28 40 44.5 96q16.5 56 16.5 125q0 40 -16.5 66t-48.5 26z" />
<glyph unicode="&#255;" horiz-adv-x="439" d="M194 176l5 -96h5l38 97l166 323h80l-236 -446q-26 -49 -51.5 -95.5q-25.5 -46.5 -52.5 -83q-27 -36.5 -56 -58.5q-29 -22 -60 -22q-17 0 -29.5 2q-12.5 2 -22.5 7l24 69q11 -4 24 -4q29 0 58 30q29 30 65 101l-86 500h80zM150 653q0 22 12.5 36.5q12.5 14.5 33.5 14.5q21 0 34 -14.5q13 -14.5 13 -36.5q0 -20 -13 -34.5q-13 -14.5 -34 -14.5q-21 0 -33.5 14.5q-12.5 14.5 -12.5 34.5zt0 0zM333 654q0 21 12.5 35.5q12.5 14.5 33.5 14.5q22 0 34.5 -14.5q12.5 -14.5 12.5 -35.5q0 -21 -12.5 -35.5q-12.5 -14.5 -34.5 -14.5q-21 0 -33.5 14.5t-12.5 35.5z" />
<glyph unicode="&#256;" horiz-adv-x="557" d="M404 194h-244l-108 -194h-85l404 711h37l101 -711h-77zM199 266h197l-29 213l-2 106h-1l-45 -108zM260 843h300l-13 -62l-301 0z" />
<glyph unicode="&#257;" horiz-adv-x="487" d="M414 197q-8 -37 -11 -75q-3 -38 -3 -71q0 -15 0 -28.5q0 -13.5 2 -24.5l-56 0l-14 87h-4q-12 -17 -29.5 -34.5q-17.5 -17.5 -38.5 -31.5q-21 -14 -45 -22.5q-24 -8.5 -51 -8.5q-119 0 -119 155q0 64 16.5 130q16.5 66 51 119q34.5 53 89 87q54.5 34 131.5 34q28 0 68.5 -6.5q40.5 -6.5 75.5 -17.5zM187 52q24 0 46 11.5q22 11.5 41.5 28.5q19.5 17 34.5 36.5q15 19.5 24 36.5l56 270q-30 14 -76 14q-46 0 -81 -27q-35 -27 -59 -70.5q-24 -43.5 -36 -98.5q-12 -55 -12 -110q0 -38 15 -64.5q15 -26.5 47 -26.5zt0 0zM207 643h281l-13 -62l-282 0z" />
<glyph unicode="&#258;" horiz-adv-x="557" d="M404 194h-244l-108 -194h-85l404 711h37l101 -711h-77zM199 266h197l-29 213l-2 106h-1l-45 -108zM294 871q11 -35 36 -53.5q25 -18.5 64 -18.5q32 0 55 6q23 6 40 15.5q17 9.5 30 22.5q13 13 24 28l41 -19q-25 -60 -74 -91q-49 -31 -119 -31q-29 0 -53 9.5q-24 9.5 -41.5 25.5q-17.5 16 -28 37.5q-10.5 21.5 -13.5 44.5z" />
<glyph unicode="&#259;" horiz-adv-x="487" d="M414 197q-8 -37 -11 -75q-3 -38 -3 -71q0 -15 0 -28.5q0 -13.5 2 -24.5l-56 0l-14 87h-4q-12 -17 -29.5 -34.5q-17.5 -17.5 -38.5 -31.5q-21 -14 -45 -22.5q-24 -8.5 -51 -8.5q-119 0 -119 155q0 64 16.5 130q16.5 66 51 119q34.5 53 89 87q54.5 34 131.5 34q28 0 68.5 -6.5q40.5 -6.5 75.5 -17.5zM187 52q24 0 46 11.5q22 11.5 41.5 28.5q19.5 17 34.5 36.5q15 19.5 24 36.5l56 270q-30 14 -76 14q-46 0 -81 -27q-35 -27 -59 -70.5q-24 -43.5 -36 -98.5q-12 -55 -12 -110q0 -38 15 -64.5q15 -26.5 47 -26.5zt0 0zM263 720q9 -36 27.5 -56.5q18.5 -20.5 53.5 -20.5q38 0 70.5 20.5q32.5 20.5 55.5 56.5l35 -18q-8 -24 -24.5 -47.5q-16.5 -23.5 -39 -41.5q-22.5 -18 -50 -29q-27.5 -11 -55.5 -11q-52 0 -85.5 33.5q-33.5 33.5 -35.5 90.5z" />
<glyph unicode="&#260;" horiz-adv-x="557" d="M404 194h-244l-108 -194h-85l404 711h37l101 -711h-21q-15 -8 -28.5 -17q-13.5 -9 -24.5 -20.5q-11 -11.5 -17 -26.5q-6 -15 -7 -32q0 -17 9.5 -28.5q9.5 -11.5 31.5 -11.5q19 0 42 8l1 -43q-19 -13 -43 -18.5q-24 -5.5 -43 -5.5q-34 0 -57 18.5q-23 18.5 -23 55.5q2 41 31 72.5q29 31.5 71 48.5zM199 265h197l-29 215q-1 18 -1 48.5q0 30.5 -1 56.5l-1 0l-45 -108z" />
<glyph unicode="&#261;" horiz-adv-x="487" d="M414 197q-8 -37 -11 -75q-3 -38 -3 -71q0 -15 0 -28.5q0 -13.5 2 -24.5l-27 0q-31 -16 -51.5 -39q-20.5 -23 -20.5 -55q0 -17 9 -28.5q9 -11.5 32 -11.5q19 0 41 8l1 -43q-17 -13 -41 -18.5q-24 -5.5 -44 -5.5q-34 -1 -57 17.5q-23 18.5 -23 55.5q0 21 7.5 39q7.5 18 21.5 33.5q14 15.5 37 31q23 15.5 57 25.5l-12 78h-4q-12 -17 -29.5 -34.5q-17.5 -17.5 -38.5 -31.5q-21 -14 -45 -22.5q-24 -8.5 -51 -8.5q-119 0 -119 155q0 64 16.5 130q16.5 66 51 119q34.5 53 89 87q54.5 34 131.5 34q28 0 68.5 -6.5q40.5 -6.5 75.5 -17.5zM187 52q24 0 46 11.5q22 11.5 41.5 28.5q19.5 17 34.5 36.5q15 19.5 24 36.5l56 270q-30 14 -76 14q-46 0 -81 -27q-35 -27 -59 -70.5q-24 -43.5 -36 -98.5q-12 -55 -12 -110q0 -38 15 -64.5t47 -26.5z" />
<glyph unicode="&#262;" horiz-adv-x="544" d="M480 29q-34 -23 -72 -32q-38 -9 -88 -9q-59 0 -105 21.5q-46 21.5 -78 60q-32 38.5 -49 90.5q-17 52 -17 114q0 113 33 195.5q33 82.5 87 136.5q54 54 121.5 80q67.5 26 136.5 26q57 0 93 -8q36 -8 59 -19l-36 -73q-20 11 -52.5 18.5q-32.5 7.5 -74.5 7.5q-56 0 -107.5 -24.5q-51.5 -24.5 -90.5 -70.5q-39 -46 -62 -112q-23 -66 -23 -148q0 -48 12.5 -88.5q12.5 -40.5 36 -70q23.5 -29.5 58 -46q34.5 -16.5 78.5 -16.5q47 0 78 10.5q31 10.5 56 24.5zM534 870h116l-5 -21l-175 -97l-73 0z" />
<glyph unicode="&#263;" horiz-adv-x="420" d="M365 43q-15 -13 -34.5 -23q-19.5 -10 -40 -17q-20.5 -7 -40.5 -11q-20 -4 -38 -4q-49 0 -80.5 15.5q-31.5 15.5 -49.5 39.5q-18 24 -25 52q-7 28 -7 53q0 85 23 152.5q23 67.5 61.5 114.5q38.5 47 88.5 72q50 25 103 25q38 0 62.5 -7q24.5 -7 44.5 -16l-28 -62q-17 10 -42 15.5q-25 5.5 -54 5.5q-34 0 -66.5 -23q-32.5 -23 -57.5 -60.5q-25 -37.5 -40 -86q-15 -48.5 -15 -99.5q0 -65 27 -96q27 -31 73 -31q30 0 63 13.5q33 13.5 53 27.5zM384 720h84l-5 -21l-123 -128l-44 0z" />
<glyph unicode="&#264;" horiz-adv-x="544" d="M480 29q-34 -23 -72 -32q-38 -9 -88 -9q-59 0 -105 21.5q-46 21.5 -78 60q-32 38.5 -49 90.5q-17 52 -17 114q0 113 33 195.5q33 82.5 87 136.5q54 54 121.5 80q67.5 26 136.5 26q57 0 93 -8q36 -8 59 -19l-36 -73q-20 11 -52.5 18.5q-32.5 7.5 -74.5 7.5q-56 0 -107.5 -24.5q-51.5 -24.5 -90.5 -70.5q-39 -46 -62 -112q-23 -66 -23 -148q0 -48 12.5 -88.5q12.5 -40.5 36 -70q23.5 -29.5 58 -46q34.5 -16.5 78.5 -16.5q47 0 78 10.5q31 10.5 56 24.5zM455 870h48l99 -102l-4 -21h-68l-46 49l-10 35l-25 -34l-71 -50h-75l5 22z" />
<glyph unicode="&#265;" horiz-adv-x="420" d="M365 43q-15 -13 -34.5 -23q-19.5 -10 -40 -17q-20.5 -7 -40.5 -11q-20 -4 -38 -4q-49 0 -80.5 15.5q-31.5 15.5 -49.5 39.5q-18 24 -25 52q-7 28 -7 53q0 85 23 152.5q23 67.5 61.5 114.5q38.5 47 88.5 72q50 25 103 25q38 0 62.5 -7q24.5 -7 44.5 -16l-28 -62q-17 10 -42 15.5q-25 5.5 -54 5.5q-34 0 -66.5 -23q-32.5 -23 -57.5 -60.5q-25 -37.5 -40 -86q-15 -48.5 -15 -99.5q0 -65 27 -96q27 -31 73 -31q30 0 63 13.5q33 13.5 53 27.5zM335 732h30l66 -182h-63l-24 66l-6 58l-34 -58l-57 -66l-68 0z" />
<glyph unicode="&#268;" horiz-adv-x="544" d="M480 29q-34 -23 -72 -32q-38 -9 -88 -9q-59 0 -105 21.5q-46 21.5 -78 60q-32 38.5 -49 90.5q-17 52 -17 114q0 113 33 195.5q33 82.5 87 136.5q54 54 121.5 80q67.5 26 136.5 26q57 0 93 -8q36 -8 59 -19l-36 -73q-20 11 -52.5 18.5q-32.5 7.5 -74.5 7.5q-56 0 -107.5 -24.5q-51.5 -24.5 -90.5 -70.5q-39 -46 -62 -112q-23 -66 -23 -148q0 -48 12.5 -88.5q12.5 -40.5 36 -70q23.5 -29.5 58 -46q34.5 -16.5 78.5 -16.5q47 0 78 10.5q31 10.5 56 24.5zM477 746h-47l-97 103l3 21h67l46 -50l9 -34l24 33l71 51h76l-4 -22z" />
<glyph unicode="&#269;" horiz-adv-x="420" d="M365 43q-15 -13 -34.5 -23q-19.5 -10 -40 -17q-20.5 -7 -40.5 -11q-20 -4 -38 -4q-49 0 -80.5 15.5q-31.5 15.5 -49.5 39.5q-18 24 -25 52q-7 28 -7 53q0 85 23 152.5q23 67.5 61.5 114.5q38.5 47 88.5 72q50 25 103 25q38 0 62.5 -7q24.5 -7 44.5 -16l-28 -62q-17 10 -42 15.5q-25 5.5 -54 5.5q-34 0 -66.5 -23q-32.5 -23 -57.5 -60.5q-25 -37.5 -40 -86q-15 -48.5 -15 -99.5q0 -65 27 -96q27 -31 73 -31q30 0 63 13.5q33 13.5 53 27.5zM327 550h-35l-71 182h72l23 -66l7 -58l34 58l56 66l70 0z" />
<glyph unicode="&#270;" horiz-adv-x="622" d="M189 700q38 5 86 6.5q48 1.5 87 1.5q59 0 107 -15.5q48 -15.5 81.5 -47.5q33.5 -32 51.5 -81q18 -49 18 -115q0 -44 -8 -95.5q-8 -51.5 -26.5 -102q-18.5 -50.5 -49.5 -97.5q-31 -47 -77 -83.5q-46 -36.5 -108 -58q-62 -21.5 -143 -21.5q-15 0 -39.5 0.5q-24.5 0.5 -48.5 1.5q-70 4 -80 6zM356 634q-12 0 -27 -0.5q-15 -0.5 -29 -1q-14 -0.5 -27 -1.5q-13 -1 -20 -2l-118 -560q4 -1 16 -1.5q12 -0.5 25.5 -1q13.5 -0.5 26 -1q12.5 -0.5 17.5 -0.5q87 0 147 36q60 36 97.5 91q37.5 55 54.5 121q17 66 17 125q0 45 -10 81q-10 36 -31.5 61.5q-21.5 25.5 -55.5 39.5q-34 14 -83 14zt0 0zM405 746h-47l-97 103l3 21h67l46 -50l9 -34l24 33l71 51h76l-4 -22z" />
<glyph unicode="&#271;" horiz-adv-x="509" d="M419 172q-8 -39 -12 -73q-4 -34 -4 -63q0 -11 0.5 -20q0.5 -9 1.5 -18l-50 0l-14 87h-4q-12 -17 -30 -34.5q-18 -17.5 -40 -31.5q-22 -14 -46.5 -22.5q-24.5 -8.5 -50.5 -8.5q-55 0 -87.5 40.5q-32.5 40.5 -32.5 128.5q0 59 17 121.5q17 62.5 50 113.5q33 51 82.5 84q49.5 33 114.5 33q18 0 31 -1q13 -1 24.5 -3q11.5 -2 21.5 -5.5q10 -3.5 21 -7.5l44 208h75zM198 52q21 0 43 11.5q22 11.5 41.5 28.5q19.5 17 35 36.5q15.5 19.5 24.5 36.5l56 260q-17 11 -38.5 15.5q-21.5 4.5 -56.5 4.5q-40 0 -72 -24.5q-32 -24.5 -54.5 -65.5q-22.5 -41 -34.5 -94q-12 -53 -12 -109q0 -41 16 -70.5q16 -29.5 52 -29.5zt0 0zM677 700q-8 -29 -23.5 -59.5q-15.5 -30.5 -33.5 -56.5q-18 -26 -34.5 -46q-16.5 -20 -26.5 -29l-27 18q24 36 41.5 81.5q17.5 45.5 27.5 91.5z" />
<glyph unicode="&#272;" horiz-adv-x="626" d="M41 392h86l66 308q38 5 86 6.5q48 1.5 87 1.5q58 0 106 -15.5q48 -15.5 81.5 -47.5q33.5 -32 51.5 -81q18 -49 18 -115q0 -44 -8 -95.5q-8 -51.5 -26.5 -102q-18.5 -50.5 -49.5 -97.5q-31 -47 -77 -83.5q-46 -36.5 -107.5 -58q-61.5 -21.5 -142.5 -21.5q-15 0 -39.5 0.5q-24.5 0.5 -50.5 1.5q-68 4 -78 6l71 333h-87zM360 634q-12 0 -27 -0.5q-15 -0.5 -29 -1q-14 -0.5 -27 -1.5q-13 -1 -20 -2l-50 -237h137l-12 -60h-138l-55 -263q4 -1 16 -1.5q12 -0.5 25.5 -1q13.5 -0.5 26 -1q12.5 -0.5 17.5 -0.5q87 0 146.5 36q59.5 36 97 91q37.5 55 54.5 121q17 66 17 125q0 45 -10 81q-10 36 -31.5 61.5q-21.5 25.5 -55.5 39.5t-82 14z" />
<glyph unicode="&#273;" horiz-adv-x="509" d="M516 632h87l-12 -60h-87l-85 -400q-8 -39 -12 -73q-4 -34 -4 -63q0 -11 0.5 -20q0.5 -9 1.5 -18l-50 0l-14 87h-4q-12 -17 -30 -34.5q-18 -17.5 -40 -31.5q-22 -14 -46.5 -22.5q-24.5 -8.5 -50.5 -8.5q-55 0 -87.5 40.5q-32.5 40.5 -32.5 128.5q0 59 17 121.5q17 62.5 50 113.5q33 51 82.5 84q49.5 33 114.5 33q18 0 31 -1q13 -1 24.5 -3q11.5 -2 21.5 -5.5q10 -3.5 21 -7.5l17 80h-140l12 60h140l15 68h75zM198 52q21 0 43 11.5q22 11.5 41.5 28.5q19.5 17 35 36.5q15.5 19.5 24.5 36.5l56 260q-17 11 -38.5 15.5q-21.5 4.5 -56.5 4.5q-40 0 -72 -24.5q-32 -24.5 -54.5 -65.5q-22.5 -41 -34.5 -94q-12 -53 -12 -109q0 -41 16 -70.5t52 -29.5z" />
<glyph unicode="&#274;" horiz-adv-x="510" d="M189 700h361l-15 -74h-283l-49 -229h259l-15 -74h-259l-53 -249h288l-16 -74h-288h-79zM238 843h300l-13 -62l-301 0z" />
<glyph unicode="&#275;" horiz-adv-x="463" d="M389 49q-35 -30 -82.5 -45.5q-47.5 -15.5 -95.5 -15.5q-80 0 -120.5 46q-40.5 46 -40.5 128q0 82 23 147q23 65 60.5 110q37.5 45 85 69q47.5 24 97.5 24q36 0 62.5 -10q26.5 -10 43.5 -26.5q17 -16.5 25 -38q8 -21.5 8 -45.5q0 -71 -69 -111.5q-69 -40.5 -201 -40.5q-12 0 -25 0.5q-13 0.5 -27 1.5q-4 -19 -6 -36q-2 -17 -2 -30q0 -55 25 -89.5q25 -34.5 78 -34.5q44 0 80.5 14.5q36.5 14.5 56.5 30.5zM304 448q-55 0 -95.5 -37.5q-40.5 -37.5 -61.5 -112.5q38 0 79 2q41 2 74.5 10.5q33.5 8.5 55.5 27q22 18.5 22 51.5q0 10 -3.5 20.5q-3.5 10.5 -11.5 19q-8 8.5 -22.5 14q-14.5 5.5 -36.5 5.5zt0 0zM192 643h281l-13 -62l-282 0z" />
<glyph unicode="&#278;" horiz-adv-x="510" d="M189 700h361l-15 -74h-283l-49 -229h259l-15 -74h-259l-53 -249h288l-16 -74h-288h-79zM330 796q0 23 17 38q17 15 42 15q26 0 43 -15q17 -15 17 -38q0 -22 -17 -37q-17 -15 -43 -15q-25 0 -42 15t-17 37z" />
<glyph unicode="&#279;" horiz-adv-x="463" d="M389 49q-35 -30 -82.5 -45.5q-47.5 -15.5 -95.5 -15.5q-80 0 -120.5 46q-40.5 46 -40.5 128q0 82 23 147q23 65 60.5 110q37.5 45 85 69q47.5 24 97.5 24q36 0 62.5 -10q26.5 -10 43.5 -26.5q17 -16.5 25 -38q8 -21.5 8 -45.5q0 -71 -69 -111.5q-69 -40.5 -201 -40.5q-12 0 -25 0.5q-13 0.5 -27 1.5q-4 -19 -6 -36q-2 -17 -2 -30q0 -55 25 -89.5q25 -34.5 78 -34.5q44 0 80.5 14.5q36.5 14.5 56.5 30.5zM304 448q-55 0 -95.5 -37.5q-40.5 -37.5 -61.5 -112.5q38 0 79 2q41 2 74.5 10.5q33.5 8.5 55.5 27q22 18.5 22 51.5q0 10 -3.5 20.5q-3.5 10.5 -11.5 19q-8 8.5 -22.5 14q-14.5 5.5 -36.5 5.5zt0 0zM289 653q0 23 15.5 39q15.5 16 38.5 16q23 0 39 -16q16 -16 16 -39q0 -23 -16 -38.5q-16 -15.5 -39 -15.5q-23 0 -38.5 15.5t-15.5 38.5z" />
<glyph unicode="&#280;" horiz-adv-x="510" d="M189 700h361l-15 -74h-283l-49 -229h259l-15 -74h-259l-53 -249h288l-16 -74h-27q-31 -15 -54 -38q-23 -23 -23 -58q0 -17 9.5 -28.5q9.5 -11.5 31.5 -11.5q19 0 42 8l1 -43q-18 -13 -42 -18.5q-24 -5.5 -44 -5.5q-35 0 -57.5 18q-22.5 18 -22.5 55q0 44 30 74.5q30 30.5 71 47.5l-202 0l-80 0z" />
<glyph unicode="&#281;" horiz-adv-x="463" d="M389 49q-34 -29 -81 -45q-30 -17 -54 -43q-24 -26 -26 -61q0 -17 10.5 -28.5q10.5 -11.5 25.5 -10.5q22 1 45 10l1 -42q-17 -12 -42 -18q-25 -6 -45 -6q-37 0 -56.5 18q-19.5 18 -20.5 49q-1 10 2 22q5 26 27 51.5q22 25.5 51 43.5l-15 -1q-80 0 -120.5 46q-40.5 46 -40.5 128q0 82 23 147q23 65 60.5 110q37.5 45 85 69q47.5 24 97.5 24q36 0 62.5 -10q26.5 -10 43.5 -26.5q17 -16.5 25 -38q8 -21.5 8 -45.5q0 -71 -69 -111.5q-69 -40.5 -201 -40.5q-12 0 -25.5 0.5q-13.5 0.5 -27.5 1.5q-4 -19 -5.5 -36q-1.5 -17 -1.5 -30q1 -55 25.5 -89.5q24.5 -34.5 77.5 -34.5q44 0 80.5 14.5q36.5 14.5 56.5 30.5zM304 448q-55 0 -95.5 -37.5q-40.5 -37.5 -61.5 -112.5q38 0 79 2q41 2 74.5 10.5q33.5 8.5 55.5 27q22 18.5 22 51.5q0 10 -3.5 20.5q-3.5 10.5 -11.5 19q-8 8.5 -22.5 14t-36.5 5.5z" />
<glyph unicode="&#282;" horiz-adv-x="510" d="M189 700h361l-15 -74h-283l-49 -229h259l-15 -74h-259l-53 -249h288l-16 -74h-288h-79zM393 746h-47l-97 103l3 21h67l46 -50l9 -34l24 33l71 51h76l-4 -22z" />
<glyph unicode="&#283;" horiz-adv-x="463" d="M389 49q-35 -30 -82.5 -45.5q-47.5 -15.5 -95.5 -15.5q-80 0 -120.5 46q-40.5 46 -40.5 128q0 82 23 147q23 65 60.5 110q37.5 45 85 69q47.5 24 97.5 24q36 0 62.5 -10q26.5 -10 43.5 -26.5q17 -16.5 25 -38q8 -21.5 8 -45.5q0 -71 -69 -111.5q-69 -40.5 -201 -40.5q-12 0 -25 0.5q-13 0.5 -27 1.5q-4 -19 -6 -36q-2 -17 -2 -30q0 -55 25 -89.5q25 -34.5 78 -34.5q44 0 80.5 14.5q36.5 14.5 56.5 30.5zM304 448q-55 0 -95.5 -37.5q-40.5 -37.5 -61.5 -112.5q38 0 79 2q41 2 74.5 10.5q33.5 8.5 55.5 27q22 18.5 22 51.5q0 10 -3.5 20.5q-3.5 10.5 -11.5 19q-8 8.5 -22.5 14q-14.5 5.5 -36.5 5.5zt0 0zM335 550h-35l-71 182h72l23 -66l7 -58l34 58l56 66l70 0z" />
<glyph unicode="&#284;" horiz-adv-x="583" d="M375 349h116h68l-65 -308q-71 -53 -176 -53q-50 0 -94.5 18q-44.5 18 -78.5 53.5q-34 35.5 -54 88.5q-20 53 -20 124q0 123 36 207q36 84 92.5 135.5q56.5 51.5 124.5 74.5q68 23 132 23q57 0 94.5 -7.5q37.5 -7.5 60.5 -18.5l-35 -73q-20 11 -53.5 18q-33.5 7 -75.5 7q-58 0 -110.5 -22.5q-52.5 -22.5 -93 -67.5q-40.5 -45 -64.5 -111.5q-24 -66.5 -24 -154.5q0 -45 11 -85q11 -40 33.5 -70q22.5 -30 56 -47.5q33.5 -17.5 79.5 -17.5q32 0 55 6.5q23 6.5 46 18.5l41 195l-112 20zM466 870h48l99 -102l-4 -21h-68l-46 49l-10 35l-25 -34l-71 -50h-75l5 22z" />
<glyph unicode="&#285;" horiz-adv-x="505" d="M385 -23q-21 -98 -72.5 -143.5q-51.5 -45.5 -136.5 -45.5q-65 0 -107 16.5q-42 16.5 -64 28.5l33 56q8 -4 19.5 -10.5q11.5 -6.5 28 -12.5q16.5 -6 40 -10q23.5 -4 55.5 -4q50 0 84 36q34 36 51 113l18 84h-4q-14 -19 -30.5 -36q-16.5 -17 -36.5 -30.5q-20 -13.5 -43.5 -21.5q-23.5 -8 -51.5 -8q-54 0 -87 39q-33 39 -33 111q0 67 18.5 133q18.5 66 55 118.5q36.5 52.5 90 85.5q53.5 33 123.5 33q54 0 91 -9q37 -9 65 -22zM196 53q25 0 49.5 13q24.5 13 45 33.5q20.5 20.5 37 44.5q16.5 24 27.5 45l51 241q-16 9 -39 12q-23 3 -47 3q-41 0 -76 -24q-35 -24 -60.5 -64.5q-25.5 -40.5 -40.5 -93.5q-15 -53 -15 -111q0 -46 18.5 -72.5q18.5 -26.5 49.5 -26.5zt0 0zM364 732h30l66 -182h-63l-24 66l-6 58l-34 -58l-57 -66l-68 0z" />
<glyph unicode="&#286;" horiz-adv-x="583" d="M375 349h116h68l-65 -308q-71 -53 -176 -53q-50 0 -94.5 18q-44.5 18 -78.5 53.5q-34 35.5 -54 88.5q-20 53 -20 124q0 123 36 207q36 84 92.5 135.5q56.5 51.5 124.5 74.5q68 23 132 23q57 0 94.5 -7.5q37.5 -7.5 60.5 -18.5l-35 -73q-20 11 -53.5 18q-33.5 7 -75.5 7q-58 0 -110.5 -22.5q-52.5 -22.5 -93 -67.5q-40.5 -45 -64.5 -111.5q-24 -66.5 -24 -154.5q0 -45 11 -85q11 -40 33.5 -70q22.5 -30 56 -47.5q33.5 -17.5 79.5 -17.5q32 0 55 6.5q23 6.5 46 18.5l41 195l-112 20zM362 871q11 -35 36 -53.5q25 -18.5 64 -18.5q32 0 55 6q23 6 40 15.5q17 9.5 30 22.5q13 13 24 28l41 -19q-25 -60 -74 -91q-49 -31 -119 -31q-29 0 -53 9.5q-24 9.5 -41.5 25.5q-17.5 16 -28 37.5q-10.5 21.5 -13.5 44.5z" />
<glyph unicode="&#287;" horiz-adv-x="505" d="M385 -23q-21 -98 -72.5 -143.5q-51.5 -45.5 -136.5 -45.5q-65 0 -107 16.5q-42 16.5 -64 28.5l33 56q8 -4 19.5 -10.5q11.5 -6.5 28 -12.5q16.5 -6 40 -10q23.5 -4 55.5 -4q50 0 84 36q34 36 51 113l18 84h-4q-14 -19 -30.5 -36q-16.5 -17 -36.5 -30.5q-20 -13.5 -43.5 -21.5q-23.5 -8 -51.5 -8q-54 0 -87 39q-33 39 -33 111q0 67 18.5 133q18.5 66 55 118.5q36.5 52.5 90 85.5q53.5 33 123.5 33q54 0 91 -9q37 -9 65 -22zM196 53q25 0 49.5 13q24.5 13 45 33.5q20.5 20.5 37 44.5q16.5 24 27.5 45l51 241q-16 9 -39 12q-23 3 -47 3q-41 0 -76 -24q-35 -24 -60.5 -64.5q-25.5 -40.5 -40.5 -93.5q-15 -53 -15 -111q0 -46 18.5 -72.5q18.5 -26.5 49.5 -26.5zt0 0zM268 720q9 -36 27.5 -56.5q18.5 -20.5 53.5 -20.5q38 0 70.5 20.5q32.5 20.5 55.5 56.5l35 -18q-8 -24 -24.5 -47.5q-16.5 -23.5 -39 -41.5q-22.5 -18 -50 -29q-27.5 -11 -55.5 -11q-52 0 -85.5 33.5q-33.5 33.5 -35.5 90.5z" />
<glyph unicode="&#290;" horiz-adv-x="583" d="M375 349h116h68l-65 -308q-71 -53 -176 -53q-50 0 -94.5 18q-44.5 18 -78.5 53.5q-34 35.5 -54 88.5q-20 53 -20 124q0 123 36 207q36 84 92.5 135.5q56.5 51.5 124.5 74.5q68 23 132 23q57 0 94.5 -7.5q37.5 -7.5 60.5 -18.5l-35 -73q-20 11 -53.5 18q-33.5 7 -75.5 7q-58 0 -110.5 -22.5q-52.5 -22.5 -93 -67.5q-40.5 -45 -64.5 -111.5q-24 -66.5 -24 -154.5q0 -45 11 -85q11 -40 33.5 -70q22.5 -30 56 -47.5q33.5 -17.5 79.5 -17.5q32 0 55 6.5q23 6.5 46 18.5l41 195l-112 20zM254 -105q0 23 18 36.5q18 13.5 38 13.5q26 0 37 -16q11 -16 11 -40q0 -29 -12 -52q-12 -23 -28.5 -40q-16.5 -17 -33.5 -28q-17 -11 -28 -14l-18 32q20 11 36 27q16 16 20 40q-20 0 -30 11t-10 30z" />
<glyph unicode="&#291;" horiz-adv-x="505" d="M385 -23q-21 -98 -72.5 -143.5q-51.5 -45.5 -136.5 -45.5q-65 0 -107 16.5q-42 16.5 -64 28.5l33 56q8 -4 19.5 -10.5q11.5 -6.5 28 -12.5q16.5 -6 40 -10q23.5 -4 55.5 -4q50 0 84 36q34 36 51 113l18 84h-4q-14 -19 -30.5 -36q-16.5 -17 -36.5 -30.5q-20 -13.5 -43.5 -21.5q-23.5 -8 -51.5 -8q-54 0 -87 39q-33 39 -33 111q0 67 18.5 133q18.5 66 55 118.5q36.5 52.5 90 85.5q53.5 33 123.5 33q54 0 91 -9q37 -9 65 -22zM196 53q25 0 49.5 13q24.5 13 45 33.5q20.5 20.5 37 44.5q16.5 24 27.5 45l51 241q-16 9 -39 12q-23 3 -47 3q-41 0 -76 -24q-35 -24 -60.5 -64.5q-25.5 -40.5 -40.5 -93.5q-15 -53 -15 -111q0 -46 18.5 -72.5q18.5 -26.5 49.5 -26.5zt0 0zM423 612q0 -23 -18 -36.5q-18 -13.5 -38 -13.5q-26 0 -37 16q-11 16 -11 40q0 29 12 52q12 23 28.5 40q16.5 17 33.5 28q17 11 28 14l18 -32q-20 -11 -36 -27q-16 -16 -20 -40q20 0 30 -11t10 -30z" />
<glyph unicode="&#292;" horiz-adv-x="639" d="M505 321h-318l-67 -321h-80l148 700h80l-64 -305h317l64 305h80l-148 -700h-80zM444 870h48l99 -102l-4 -21h-68l-46 49l-10 35l-25 -34l-71 -50h-75l5 22z" />
<glyph unicode="&#293;" horiz-adv-x="529" d="M341 0l60 285q6 30 10 53.5q4 23.5 4 41.5q0 37 -15 52.5q-15 15.5 -47 15.5q-26 0 -53 -13.5q-27 -13.5 -52 -34.5q-25 -21 -44.5 -47q-19.5 -26 -29.5 -50l-63 -303h-75l148 700h75l-62 -286h4q13 16 31.5 33q18.5 17 42.5 31.5q24 14.5 52 24q28 9.5 61 9.5q49 0 77 -23.5q28 -23.5 28 -85.5q0 -42 -13 -101l-64 -302zM240 870h48l99 -102l-4 -21h-68l-46 49l-10 35l-25 -34l-71 -50h-75l5 22z" />
<glyph unicode="&#294;" horiz-adv-x="645" d="M94 587h73l24 113h80l-24 -113h317l24 113h80l-24 -113h77l-13 -64h-78l-110 -523h-80l68 321h-318l-67 -321h-80l110 523h-73zM524 395l27 128h-317l-27 -128z" />
<glyph unicode="&#295;" horiz-adv-x="530" d="M93 632h76l15 68h75l-15 -68h152l-12 -60h-153l-34 -158h4q13 16 31.5 33q18.5 17 42.5 31.5q24 14.5 52 24q28 9.5 61 9.5q49 0 77 -23.5q28 -23.5 28 -85.5q0 -42 -13 -101l-64 -302h-75l60 285q6 30 10 53.5q4 23.5 4 41.5q0 37 -15 52.5q-15 15.5 -47 15.5q-26 0 -53 -13.5q-27 -13.5 -52 -34.5q-25 -21 -44.5 -47q-19.5 -26 -29.5 -50l-63 -303h-75l121 572l-77 0z" />
<glyph unicode="&#298;" horiz-adv-x="277" d="M210 700h80l-148 -700h-80zM121 843h300l-13 -62l-301 0z" />
<glyph unicode="&#299;" horiz-adv-x="259" d="M160 500h75l-106 -500h-75zM88 643h281l-13 -62l-282 0z" />
<glyph unicode="&#302;" horiz-adv-x="277" d="M210 700h80l-148 -700h-17q-29 -15 -52 -38.5q-23 -23.5 -23 -58.5q0 -17 9.5 -28.5q9.5 -11.5 30.5 -11.5q19 0 42 8l1 -43q-18 -12 -42 -17.5q-24 -5.5 -44 -5.5q-34 0 -56 17.5q-22 17.5 -23 55.5q0 42 30 73.5q30 31.5 70 48.5l-6 0z" />
<glyph unicode="&#303;" horiz-adv-x="260" d="M160 500h75l-106 -500h-16q-27 -16 -47.5 -38q-20.5 -22 -26.5 -50l-1 -12q0 -17 10.5 -28q10.5 -11 34.5 -10q17 2 36 9l1 -43q-13 -10 -38 -16.5q-25 -6.5 -45 -6.5q-40 -1 -60.5 16.5q-20.5 17.5 -20.5 48.5q0 43 30.5 77.5q30.5 34.5 73.5 52.5l-6 0zM177 653q0 23 15.5 39q15.5 16 38.5 16q23 0 39 -16q16 -16 16 -39q0 -23 -16 -38.5q-16 -15.5 -39 -15.5q-23 0 -38.5 15.5t-15.5 38.5z" />
<glyph unicode="&#304;" horiz-adv-x="277" d="M210 700h80l-148 -700h-80zM208 796q0 23 17 38q17 15 42 15q26 0 43 -15q17 -15 17 -38q0 -22 -17 -37q-17 -15 -43 -15q-25 0 -42 15t-17 37z" />
<glyph unicode="&#305;" horiz-adv-x="259" d="M160 500h75l-106 -500l-75 0z" />
<glyph unicode="&#308;" horiz-adv-x="278" d="M222 700h80l-116 -546q-9 -40 -21.5 -70.5q-12.5 -30.5 -32 -51.5q-19.5 -21 -48 -31.5q-28.5 -10.5 -68.5 -10.5q-8 0 -18.5 1q-10.5 1 -21.5 3q-11 2 -21 5q-10 3 -16 7l30 71q19 -13 54 -13q21 0 35 7.5q14 7.5 24 22q10 14.5 16.5 34.5q6.5 20 11.5 46zM268 870h48l99 -102l-4 -21h-68l-46 49l-10 35l-25 -34l-71 -50h-75l5 22z" />
<glyph unicode="&#309;" horiz-adv-x="249" d="M148 500h75l-107 -501q-22 -119 -66.5 -163q-44.5 -44 -114.5 -44q-8 0 -15.5 0.5q-7.5 0.5 -15.5 1.5l15 65q30 0 49.5 8.5q19.5 8.5 33 26.5q13.5 18 23 45q9.5 27 17.5 62zM225 732h30l66 -182h-63l-24 66l-6 58l-34 -58l-57 -66l-68 0z" />
<glyph unicode="&#310;" horiz-adv-x="576" d="M239 324h-51l-68 -324h-80l148 700h80l-70 -326l40 14l287 312h99l-286 -304l-46 -31l39 -40l175 -325h-91zM166 -105q0 23 18 36.5q18 13.5 38 13.5q26 0 37 -16q11 -16 11 -40q0 -29 -12 -52q-12 -23 -28.5 -40q-16.5 -17 -33.5 -28q-17 -11 -28 -14l-18 32q20 11 36 27q16 16 20 40q-20 0 -30 11t-10 30z" />
<glyph unicode="&#311;" horiz-adv-x="449" d="M212 225h-54l-47 -225h-75l148 700h75l-91 -426l43 11l180 215h92l-178 -203l-47 -33l38 -39l112 -225h-83zM114 -105q0 23 18 36.5q18 13.5 38 13.5q26 0 37 -16q11 -16 11 -40q0 -29 -12 -52q-12 -23 -28.5 -40q-16.5 -17 -33.5 -28q-17 -11 -28 -14l-18 32q20 11 36 27q16 16 20 40q-20 0 -30 11t-10 30z" />
<glyph unicode="&#313;" horiz-adv-x="492" d="M434 0h-316h-78l148 700h80l-133 -626h314zM351 870h116l-5 -21l-175 -97l-73 0z" />
<glyph unicode="&#314;" horiz-adv-x="270" d="M133 119q-3 -17 -3 -28q0 -19 6.5 -27.5q6.5 -8.5 17.5 -8.5q20 0 33.5 2.5q13.5 2.5 32.5 9.5l0 -57q-9 -5 -21 -8.5q-12 -3.5 -24.5 -5.5q-12.5 -2 -25 -3.5q-12.5 -1.5 -22.5 -1.5q-35 0 -56 16q-21 16 -21 59q0 20 6 49l124 585h75zM325 870h116l-5 -21l-175 -97l-73 0z" />
<glyph unicode="&#315;" horiz-adv-x="492" d="M434 0h-316h-78l148 700h80l-133 -626h314zM154 -105q0 23 18 36.5q18 13.5 38 13.5q26 0 37 -16q11 -16 11 -40q0 -29 -12 -52q-12 -23 -28.5 -40q-16.5 -17 -33.5 -28q-17 -11 -28 -14l-18 32q20 11 36 27q16 16 20 40q-20 0 -30 11t-10 30z" />
<glyph unicode="&#316;" horiz-adv-x="270" d="M133 119q-3 -17 -3 -28q0 -19 6.5 -27.5q6.5 -8.5 17.5 -8.5q20 0 33.5 2.5q13.5 2.5 32.5 9.5l0 -57q-9 -5 -21 -8.5q-12 -3.5 -24.5 -5.5q-12.5 -2 -25 -3.5q-12.5 -1.5 -22.5 -1.5q-35 0 -56 16q-21 16 -21 59q0 20 6 49l124 585h75zM41 -105q0 23 18 36.5q18 13.5 38 13.5q26 0 37 -16q11 -16 11 -40q0 -29 -12 -52q-12 -23 -28.5 -40q-16.5 -17 -33.5 -28q-17 -11 -28 -14l-18 32q20 11 36 27q16 16 20 40q-20 0 -30 11t-10 30z" />
<glyph unicode="&#317;" horiz-adv-x="492" d="M434 0h-316h-78l148 700h80l-133 -626h314zM516 700q-8 -29 -23.5 -59.5q-15.5 -30.5 -33.5 -56.5q-18 -26 -34.5 -46q-16.5 -20 -26.5 -29l-27 18q24 36 41.5 81.5q17.5 45.5 27.5 91.5z" />
<glyph unicode="&#318;" horiz-adv-x="270" d="M133 119q-3 -17 -3 -28q0 -19 6.5 -27.5q6.5 -8.5 17.5 -8.5q20 0 33.5 2.5q13.5 2.5 32.5 9.5l0 -57q-9 -5 -21 -8.5q-12 -3.5 -24.5 -5.5q-12.5 -2 -25 -3.5q-12.5 -1.5 -22.5 -1.5q-35 0 -56 16q-21 16 -21 59q0 20 6 49l124 585h75zM404 700q-8 -29 -23.5 -59.5q-15.5 -30.5 -33.5 -56.5q-18 -26 -34.5 -46q-16.5 -20 -26.5 -29l-27 18q24 36 41.5 81.5q17.5 45.5 27.5 91.5z" />
<glyph unicode="&#321;" horiz-adv-x="493" d="M36 287l77 54l76 359h80l-63 -293l120 84l-17 -80l-119 -83l-54 -254h314l-15 -74h-314h-80l56 264l-77 -53z" />
<glyph unicode="&#322;" horiz-adv-x="270" d="M19 285l86 60l75 355h75l-62 -293l116 82l-17 -80l-115 -80l-44 -210q-3 -17 -3 -28q0 -19 6.5 -27.5q6.5 -8.5 17.5 -8.5q20 0 33.5 2.5q13.5 2.5 32.5 9.5l0 -57q-9 -5 -21 -8.5q-12 -3.5 -24.5 -5.5q-12.5 -2 -25 -3.5q-12.5 -1.5 -22.5 -1.5q-35 0 -56 16q-21 16 -21 59q0 20 6 49l32 153l-85 -59z" />
<glyph unicode="&#323;" horiz-adv-x="642" d="M261 458l-34 103h-3l-12 -103l-97 -458h-75l151 711h40l218 -468l33 -98h4l9 98l98 457h75l-151 -711h-37zM524 870h116l-5 -21l-175 -97l-73 0z" />
<glyph unicode="&#324;" horiz-adv-x="522" d="M320 0l67 316q4 18 7 35.5q3 17.5 3 31.5q0 29 -13.5 47q-13.5 18 -50.5 18q-26 0 -51 -12q-25 -12 -47 -30.5q-22 -18.5 -39.5 -41q-17.5 -22.5 -29.5 -44.5l-66 -320h-75l106 500h52l-4 -86h4q13 16 31 33.5q18 17.5 40.5 31.5q22.5 14 50.5 23.5q28 9.5 62 9.5q50 0 79 -24q29 -24 29 -84q0 -30 -9 -72l-71 -332zM400 720h84l-5 -21l-123 -128l-44 0z" />
</font>
</defs>
</svg>
